Loading...
Error

(Blues Rock) The Boom Band - The Boom Band (Deluxe Edition) (2015) [FLAC (Tracks+.CUE), Lossless]

Статистика раздачи
Размер:  453 MB   |    Зарегистрирован:  7 лет 2 месяца   |    Скачан:  11 раз

Полного источника не было: 1 месяц 23 дня

Сидов:  0  |  0 KB/s  ]   Личеров:  0  |  0 KB/s  ]

* - сиды/пиры с внешних источников

   
 
Автор Сообщение

Бишеп Пол:Муж

13-Июл-2015 16:35

The Boom Band - The Boom Band

Жанр: Blues Rock
Год выпуска: 2015
Источник: CD
Производитель диска: Boom Recordings - BBDECD 0115
Аудиокодек: FLAC
Тип рипа: Tracks+.CUE
Битрейт аудио: lossless
Продолжительность: 01:09:08


Треклист:
01. We Can Work Together
02. Diamonds In The Rust
03. Under The Skin
04. Sweet Alberta
05. Moonshine
06. Waste My Time
07. Monty's Theme
08. Favour Bank Shuffle
09. When You Come Home
10. Red Eye Of The Devil
Bonus Tracks:
11. Nobody's Fault But Mine
12. Can't Find My Way Home
13. You Can Bring Me Flowers
14. We Can Work Together

Код:

X Lossless Decoder version 20141129 (148.1)

XLD extraction logfile from 2015-03-30 03:56:14 +0100

The Boom Band / Deluxe Edition

Used drive : HL-DT-ST BD-RE  BE12LU30 (revision 4261)
Media type : Pressed CD

Ripper mode             : XLD Secure Ripper
Disable audio cache     : OK for the drive with a cache less than 1375KiB
Make use of C2 pointers : NO
Read offset correction  : 667
Max retry count         : 20
Gap status              : Analyzed, Appended

TOC of the extracted CD
     Track |   Start  |  Length  | Start sector | End sector
    ---------------------------------------------------------
        1  | 00:00:00 | 05:17:52 |         0    |    23826   
        2  | 05:17:52 | 05:13:37 |     23827    |    47338   
        3  | 10:31:14 | 03:52:34 |     47339    |    64772   
        4  | 14:23:48 | 03:34:42 |     64773    |    80864   
        5  | 17:58:15 | 05:06:35 |     80865    |   103849   
        6  | 23:04:50 | 04:32:64 |    103850    |   124313   
        7  | 27:37:39 | 05:29:01 |    124314    |   148989   
        8  | 33:06:40 | 03:30:01 |    148990    |   164740   
        9  | 36:36:41 | 04:40:25 |    164741    |   185765   
       10  | 41:16:66 | 07:54:30 |    185766    |   221345   
       11  | 49:11:21 | 03:57:35 |    221346    |   239155   
       12  | 53:08:56 | 04:56:66 |    239156    |   261421   
       13  | 58:05:47 | 04:28:11 |    261422    |   281532   
       14  | 62:33:58 | 06:35:52 |    281533    |   311209   

AccurateRip Summary
    Disc not found in AccurateRip DB.

All Tracks
    Album gain               : -8.36 dB
    Peak                     : 0.963409
    Statistics
        Read error                           : 0
        Jitter error (maybe fixed)           : 24
        Retry sector count                   : 71
        Damaged sector count                 : 0

Track 01
    Filename : /Volumes/Audio Dump 4TB USB/XLD RIPS/The Boom Band - Deluxe Edition (2015) [FLAC]/01 We Can Work Together.flac
    Pre-gap length : 00:02:00

    Track gain               : -8.91 dB
    Peak                     : 0.962555
    CRC32 hash (test run)    : 9310E55E
    CRC32 hash               : 9310E55E
    CRC32 hash (skip zero)   : 901C57D9
    AccurateRip v1 signature : A37B3C2A
    AccurateRip v2 signature : 1CB55007
        ->Track not present in AccurateRip database.
    Statistics
        Read error                           : 0
        Jitter error (maybe fixed)           : 0
        Retry sector count                   : 0
        Damaged sector count                 : 0

Track 02
    Filename : /Volumes/Audio Dump 4TB USB/XLD RIPS/The Boom Band - Deluxe Edition (2015) [FLAC]/02 Diamonds In The Rust.flac
    Pre-gap length : 00:01:04

    Track gain               : -9.05 dB
    Peak                     : 0.963409
    CRC32 hash (test run)    : 510DCACA
    CRC32 hash               : 510DCACA
    CRC32 hash (skip zero)   : FAA021DB
    AccurateRip v1 signature : 7E4EB1F8
    AccurateRip v2 signature : 34A059C6
        ->Track not present in AccurateRip database.
    Statistics
        Read error                           : 0
        Jitter error (maybe fixed)           : 0
        Retry sector count                   : 0
        Damaged sector count                 : 0

Track 03
    Filename : /Volumes/Audio Dump 4TB USB/XLD RIPS/The Boom Band - Deluxe Edition (2015) [FLAC]/03 Under The Skin.flac
    Pre-gap length : 00:02:00

    Track gain               : -8.70 dB
    Peak                     : 0.957642
    CRC32 hash (test run)    : B99E0A45
    CRC32 hash               : B99E0A45
    CRC32 hash (skip zero)   : E219088B
    AccurateRip v1 signature : D4E53223
    AccurateRip v2 signature : CA3DA9B0
        ->Track not present in AccurateRip database.
    Statistics
        Read error                           : 0
        Jitter error (maybe fixed)           : 0
        Retry sector count                   : 0
        Damaged sector count                 : 0

Track 04
    Filename : /Volumes/Audio Dump 4TB USB/XLD RIPS/The Boom Band - Deluxe Edition (2015) [FLAC]/04 Sweet Alberta.flac
    Pre-gap length : 00:02:00

    Track gain               : -9.21 dB
    Peak                     : 0.961304
    CRC32 hash (test run)    : 3A0E92A2
    CRC32 hash               : 3A0E92A2
    CRC32 hash (skip zero)   : E5DACEE2
    AccurateRip v1 signature : ABEF9972
    AccurateRip v2 signature : D4792D8C
        ->Track not present in AccurateRip database.
    Statistics
        Read error                           : 0
        Jitter error (maybe fixed)           : 0
        Retry sector count                   : 0
        Damaged sector count                 : 0

Track 05
    Filename : /Volumes/Audio Dump 4TB USB/XLD RIPS/The Boom Band - Deluxe Edition (2015) [FLAC]/05 Moonshine.flac
    Pre-gap length : 00:02:00

    Track gain               : -7.94 dB
    Peak                     : 0.961365
    CRC32 hash (test run)    : 4029FBFC
    CRC32 hash               : 4029FBFC
    CRC32 hash (skip zero)   : BA8759B0
    AccurateRip v1 signature : 11E45BA7
    AccurateRip v2 signature : 8CCF582C
        ->Track not present in AccurateRip database.
    Statistics
        Read error                           : 0
        Jitter error (maybe fixed)           : 0
        Retry sector count                   : 0
        Damaged sector count                 : 0

Track 06
    Filename : /Volumes/Audio Dump 4TB USB/XLD RIPS/The Boom Band - Deluxe Edition (2015) [FLAC]/06 Waste My Time.flac
    Pre-gap length : 00:02:00

    Track gain               : -8.71 dB
    Peak                     : 0.962585
    CRC32 hash (test run)    : 24EC7B5E
    CRC32 hash               : 24EC7B5E
    CRC32 hash (skip zero)   : E170A9A3
    AccurateRip v1 signature : 20A551BC
    AccurateRip v2 signature : 4AD32E4A
        ->Track not present in AccurateRip database.
    Statistics
        Read error                           : 0
        Jitter error (maybe fixed)           : 0
        Retry sector count                   : 0
        Damaged sector count                 : 0

Track 07
    Filename : /Volumes/Audio Dump 4TB USB/XLD RIPS/The Boom Band - Deluxe Edition (2015) [FLAC]/07 Monty's Theme.flac
    Pre-gap length : 00:02:00

    Track gain               : -7.31 dB
    Peak                     : 0.957489
    CRC32 hash (test run)    : 285BF892
    CRC32 hash               : 285BF892
    CRC32 hash (skip zero)   : 241D6588
    AccurateRip v1 signature : F346C14C
    AccurateRip v2 signature : 521A6D34
        ->Track not present in AccurateRip database.
    Statistics
        Read error                           : 0
        Jitter error (maybe fixed)           : 0
        Retry sector count                   : 0
        Damaged sector count                 : 0

Track 08
    Filename : /Volumes/Audio Dump 4TB USB/XLD RIPS/The Boom Band - Deluxe Edition (2015) [FLAC]/08 Favour Bank Shuffle.flac
    Pre-gap length : 00:02:00

    Track gain               : -7.63 dB
    Peak                     : 0.955383
    CRC32 hash (test run)    : 764B6645
    CRC32 hash               : 764B6645
    CRC32 hash (skip zero)   : EF011055
    AccurateRip v1 signature : A85EAC6A
    AccurateRip v2 signature : 8ABD8031
        ->Track not present in AccurateRip database.
    Statistics
        Read error                           : 0
        Jitter error (maybe fixed)           : 0
        Retry sector count                   : 0
        Damaged sector count                 : 0

Track 09
    Filename : /Volumes/Audio Dump 4TB USB/XLD RIPS/The Boom Band - Deluxe Edition (2015) [FLAC]/09 When You Come Home.flac
    Pre-gap length : 00:02:00

    Track gain               : -7.02 dB
    Peak                     : 0.961914
    CRC32 hash (test run)    : D17CD288
    CRC32 hash               : D17CD288
    CRC32 hash (skip zero)   : 29DC7BF5
    AccurateRip v1 signature : BB072A8F
    AccurateRip v2 signature : A354E062
        ->Track not present in AccurateRip database.
    Statistics
        Read error                           : 0
        Jitter error (maybe fixed)           : 0
        Retry sector count                   : 0
        Damaged sector count                 : 0

Track 10
    Filename : /Volumes/Audio Dump 4TB USB/XLD RIPS/The Boom Band - Deluxe Edition (2015) [FLAC]/10 Red Eye Of The Devil.flac
    Pre-gap length : 00:00:15

    Track gain               : -8.60 dB
    Peak                     : 0.959900
    CRC32 hash (test run)    : 85C2EEB4
    CRC32 hash               : 85C2EEB4
    CRC32 hash (skip zero)   : 2DF49934
    AccurateRip v1 signature : 1812A044
    AccurateRip v2 signature : FC2620AC
        ->Track not present in AccurateRip database.
    Statistics
        Read error                           : 0
        Jitter error (maybe fixed)           : 0
        Retry sector count                   : 0
        Damaged sector count                 : 0

Track 11
    Filename : /Volumes/Audio Dump 4TB USB/XLD RIPS/The Boom Band - Deluxe Edition (2015) [FLAC]/11 Nobody's Fault But Mine.flac
    Pre-gap length : 00:04:00

    Track gain               : -6.11 dB
    Peak                     : 0.953583
    CRC32 hash (test run)    : 5507B24F
    CRC32 hash               : 5507B24F
    CRC32 hash (skip zero)   : 7DEB12CE
    AccurateRip v1 signature : FF0D4EC0
    AccurateRip v2 signature : 19BE4ED6
        ->Track not present in AccurateRip database.
    Statistics
        Read error                           : 0
        Jitter error (maybe fixed)           : 0
        Retry sector count                   : 0
        Damaged sector count                 : 0

Track 12
    Filename : /Volumes/Audio Dump 4TB USB/XLD RIPS/The Boom Band - Deluxe Edition (2015) [FLAC]/12 Can't Find My Way Home.flac
    Pre-gap length : 00:02:00

    Track gain               : -7.04 dB
    Peak                     : 0.948303
    CRC32 hash (test run)    : 48C524B9
    CRC32 hash               : 48C524B9
    CRC32 hash (skip zero)   : 1533B748
    AccurateRip v1 signature : B563E014
    AccurateRip v2 signature : 3CAF2B7C
        ->Track not present in AccurateRip database.
    Statistics
        Read error                           : 0
        Jitter error (maybe fixed)           : 0
        Retry sector count                   : 0
        Damaged sector count                 : 0

Track 13
    Filename : /Volumes/Audio Dump 4TB USB/XLD RIPS/The Boom Band - Deluxe Edition (2015) [FLAC]/13 You Can Bring Me Fllowers.flac
    Pre-gap length : 00:02:00

    Track gain               : -5.55 dB
    Peak                     : 0.961700
    CRC32 hash (test run)    : B160D254
    CRC32 hash               : B160D254
    CRC32 hash (skip zero)   : 0448E47E
    AccurateRip v1 signature : DAE8BB0C
    AccurateRip v2 signature : 1EFE089F
        ->Track not present in AccurateRip database.
    Statistics
        Read error                           : 0
        Jitter error (maybe fixed)           : 24
        Retry sector count                   : 53
        Damaged sector count                 : 0

Track 14
    Filename : /Volumes/Audio Dump 4TB USB/XLD RIPS/The Boom Band - Deluxe Edition (2015) [FLAC]/14 We Can Work Together.flac
    Pre-gap length : 00:02:00

    Track gain               : -7.56 dB
    Peak                     : 0.955475
    CRC32 hash (test run)    : 721D878D
    CRC32 hash               : 721D878D
    CRC32 hash (skip zero)   : D3AE2A71
    AccurateRip v1 signature : 53A34381
    AccurateRip v2 signature : CD44D568
        ->Track not present in AccurateRip database.
    Statistics
        Read error                           : 0
        Jitter error (maybe fixed)           : 0
        Retry sector count                   : 18
        Damaged sector count                 : 0

No errors occurred

End of status report

-----BEGIN XLD SIGNATURE-----
UyYtvOY7tp_G1fU1bcWKc7K2zgfWD7oUmTbLux8uihlqVw63c8vFRhiUdUAI4FwufQHjd8N6Dxrp5gn8u.u57Sl7Q6Du7j7fkRsKtlS
-----END XLD SIGNATURE-----

Код:

TITLE "Deluxe Edition"
PERFORMER "The Boom Band"
REM GENRE "Blues"
REM DATE "2015"
REM DISCNUMBER 1
REM TOTALDISCS 1
REM DISCID EB10350E
REM REPLAYGAIN_ALBUM_GAIN -8.36 dB
REM REPLAYGAIN_ALBUM_PEAK 0.963409
FILE "01 We Can Work Together.flac" WAVE
  TRACK 01 AUDIO
    TITLE "We Can Work Together"
    PERFORMER "The Boom Band"
    SONGWRITER "The Boom Band"
    ISRC UKA5G1500001
    REM REPLAYGAIN_TRACK_GAIN -8.91 dB
    REM REPLAYGAIN_TRACK_PEAK 0.962555
    INDEX 01 00:00:00
  TRACK 02 AUDIO
    TITLE "Diamonds In The Rust"
    PERFORMER "The Boom Band"
    SONGWRITER "The Boom Band"
    ISRC UKA5G1500002
    REM REPLAYGAIN_TRACK_GAIN -9.05 dB
    REM REPLAYGAIN_TRACK_PEAK 0.963409
    INDEX 00 05:16:48
FILE "02 Diamonds In The Rust.flac" WAVE
    INDEX 01 00:00:00
  TRACK 03 AUDIO
    TITLE "Under The Skin"
    PERFORMER "The Boom Band"
    SONGWRITER "The Boom Band"
    ISRC UKA5G1500003
    REM REPLAYGAIN_TRACK_GAIN -8.70 dB
    REM REPLAYGAIN_TRACK_PEAK 0.957642
    INDEX 00 05:11:37
FILE "03 Under The Skin.flac" WAVE
    INDEX 01 00:00:00
  TRACK 04 AUDIO
    TITLE "Sweet Alberta"
    PERFORMER "The Boom Band"
    SONGWRITER "The Boom Band"
    ISRC UKA5G1500004
    REM REPLAYGAIN_TRACK_GAIN -9.21 dB
    REM REPLAYGAIN_TRACK_PEAK 0.961304
    INDEX 00 03:50:34
FILE "04 Sweet Alberta.flac" WAVE
    INDEX 01 00:00:00
  TRACK 05 AUDIO
    TITLE "Moonshine"
    PERFORMER "The Boom Band"
    SONGWRITER "The Boom Band"
    ISRC UKA5G1500005
    REM REPLAYGAIN_TRACK_GAIN -7.94 dB
    REM REPLAYGAIN_TRACK_PEAK 0.961365
    INDEX 00 03:32:42
FILE "05 Moonshine.flac" WAVE
    INDEX 01 00:00:00
  TRACK 06 AUDIO
    TITLE "Waste My Time"
    PERFORMER "The Boom Band"
    SONGWRITER "The Boom Band"
    ISRC UKA5G1500006
    REM REPLAYGAIN_TRACK_GAIN -8.71 dB
    REM REPLAYGAIN_TRACK_PEAK 0.962585
    INDEX 00 05:04:35
FILE "06 Waste My Time.flac" WAVE
    INDEX 01 00:00:00
  TRACK 07 AUDIO
    TITLE "Monty's Theme"
    PERFORMER "The Boom Band"
    SONGWRITER "The Boom Band"
    ISRC UKA5G1500007
    REM REPLAYGAIN_TRACK_GAIN -7.31 dB
    REM REPLAYGAIN_TRACK_PEAK 0.957489
    INDEX 00 04:30:64
FILE "07 Monty's Theme.flac" WAVE
    INDEX 01 00:00:00
  TRACK 08 AUDIO
    TITLE "Favour Bank Shuffle"
    PERFORMER "The Boom Band"
    SONGWRITER "The Boom Band"
    ISRC UKA5G1500008
    REM REPLAYGAIN_TRACK_GAIN -7.63 dB
    REM REPLAYGAIN_TRACK_PEAK 0.955383
    INDEX 00 05:27:01
FILE "08 Favour Bank Shuffle.flac" WAVE
    INDEX 01 00:00:00
  TRACK 09 AUDIO
    TITLE "When You Come Home"
    PERFORMER "The Boom Band"
    SONGWRITER "The Boom Band"
    ISRC UKA5G1500009
    REM REPLAYGAIN_TRACK_GAIN -7.02 dB
    REM REPLAYGAIN_TRACK_PEAK 0.961914
    INDEX 00 03:28:01
FILE "09 When You Come Home.flac" WAVE
    INDEX 01 00:00:00
  TRACK 10 AUDIO
    TITLE "Red Eye Of The Devil"
    PERFORMER "The Boom Band"
    SONGWRITER "The Boom Band"
    ISRC UKA5G1500010
    REM REPLAYGAIN_TRACK_GAIN -8.60 dB
    REM REPLAYGAIN_TRACK_PEAK 0.959900
    INDEX 00 04:40:10
FILE "10 Red Eye Of The Devil.flac" WAVE
    INDEX 01 00:00:00
  TRACK 11 AUDIO
    TITLE "Nobody's Fault But Mine"
    PERFORMER "The Boom Band"
    SONGWRITER "The Boom Band"
    ISRC UKA5G1500011
    REM REPLAYGAIN_TRACK_GAIN -6.11 dB
    REM REPLAYGAIN_TRACK_PEAK 0.953583
    INDEX 00 07:50:30
FILE "11 Nobody's Fault But Mine.flac" WAVE
    INDEX 01 00:00:00
  TRACK 12 AUDIO
    TITLE "Can't Find My Way Home"
    PERFORMER "The Boom Band"
    SONGWRITER "The Boom Band"
    ISRC UKA5G1500012
    REM REPLAYGAIN_TRACK_GAIN -7.04 dB
    REM REPLAYGAIN_TRACK_PEAK 0.948303
    INDEX 00 03:55:35
FILE "12 Can't Find My Way Home.flac" WAVE
    INDEX 01 00:00:00
  TRACK 13 AUDIO
    TITLE "You Can Bring Me Fllowers"
    PERFORMER "The Boom Band"
    SONGWRITER "The Boom Band"
    ISRC UKA5G1500013
    REM REPLAYGAIN_TRACK_GAIN -5.55 dB
    REM REPLAYGAIN_TRACK_PEAK 0.961700
    INDEX 00 04:54:66
FILE "13 You Can Bring Me Fllowers.flac" WAVE
    INDEX 01 00:00:00
  TRACK 14 AUDIO
    TITLE "We Can Work Together"
    PERFORMER "The Boom Band"
    SONGWRITER "The Boom Band"
    ISRC UKA5G1500014
    REM REPLAYGAIN_TRACK_GAIN -7.56 dB
    REM REPLAYGAIN_TRACK_PEAK 0.955475
    INDEX 00 04:26:11
FILE "14 We Can Work Together.flac" WAVE
    INDEX 01 00:00:00

Код:

-----------------------

DON'T MODIFY THIS FILE

-----------------------

PERFORMER: auCDtect Task Manager, ver. 1.5.1RC4 build 1.5.1.5
Copyright (c) 2008-2010 y-soft. All rights reserved
http://y-soft.org

ANALYZER: auCDtect: CD records authenticity detector, version 0.8.2
Copyright (c) 2004 Oleg Berngardt. All rights reserved.
Copyright (c) 2004 Alexander Djourik. All rights reserved.

FILE: 14 We Can Work Together.flac
  Size: 48558886 Hash: 78CA3A6DD60C5801A8511546369798DE Accuracy: -m0
  Conclusion: CDDA 100%
  Signature: 6D47C50FAD9843A008D915443CA8A596C1B09B73
FILE: 13 You Can Bring Me Fllowers.flac
  Size: 29955450 Hash: 1CC2074B93B8CAC3796EBE952A569CBE Accuracy: -m0
  Conclusion: CDDA 100%
  Signature: 605AB3E98A637C2CC62485769A294283F685CADE
FILE: 12 Can't Find My Way Home.flac
  Size: 31833400 Hash: 09EFBCC310AE5A9487FF67895275899F Accuracy: -m0
  Conclusion: CDDA 100%
  Signature: 6CA79C0E16CC3F1816CD96020C64C2B0F59305C3
FILE: 11 Nobody's Fault But Mine.flac
  Size: 26520965 Hash: 7E8B9EBFB7855473778E11C6C75EE151 Accuracy: -m0
  Conclusion: CDDA 100%
  Signature: 206628FF22DEACE29631E7BFF03A9FE0F87637BE
FILE: 10 Red Eye Of The Devil.flac
  Size: 53762603 Hash: E19F2829EC31B3E210831B4F58598FF0 Accuracy: -m0
  Conclusion: CDDA 100%
  Signature: 133EB031ED3CAC3FF15F1CE96021658319D720E1
FILE: 09 When You Come Home.flac
  Size: 32509254 Hash: FCC21E42AE205D75E644D9E69961260B Accuracy: -m0
  Conclusion: CDDA 100%
  Signature: 0A73B6D1F20E152C291EE35E19BC21F38901CE18
FILE: 08 Favour Bank Shuffle.flac
  Size: 23080195 Hash: F4F8F8152B25CDA3597BE383C0E5D406 Accuracy: -m0
  Conclusion: CDDA 100%
  Signature: 92403CD85662E1D94D88656F01D251AB72E6DAE0
FILE: 07 Monty's Theme.flac
  Size: 36801080 Hash: 15140E8C8B5AD6B8F006A125932F3DD8 Accuracy: -m0
  Conclusion: CDDA 100%
  Signature: 2EFFBC5DA5312B56EADC35739656908E1DD179CA
FILE: 06 Waste My Time.flac
  Size: 32135781 Hash: 21733D58A045796B17E27665BA0BF41C Accuracy: -m0
  Conclusion: CDDA 100%
  Signature: 97B4B14AD6C83C03F9E16FD40CD2923985825903
FILE: 05 Moonshine.flac
  Size: 33997217 Hash: 9D8022EF92467D369259758842AB38B8 Accuracy: -m0
  Conclusion: CDDA 100%
  Signature: 0ECB12E96DE266A749FD04F57A43D8B0CA142CEC
FILE: 04 Sweet Alberta.flac
  Size: 26400761 Hash: AD31ADF2C46FB6FD8E55A1E89DDF63A1 Accuracy: -m0
  Conclusion: CDDA 100%
  Signature: 149F3FF6D9CB018B7BE7CF56E3253FA80FC6BA64
FILE: 03 Under The Skin.flac
  Size: 25739287 Hash: 45C7F7B4445D008CB79FF5E0ACC4A679 Accuracy: -m0
  Conclusion: CDDA 100%
  Signature: 000A75733CE08443F15BC756F70685FCEFA841B1
FILE: 02 Diamonds In The Rust.flac
  Size: 33740845 Hash: 9E014EBE5E432971069C0B35CE1B7A44 Accuracy: -m0
  Conclusion: CDDA 100%
  Signature: DB5B78AA922D9674B68262992E41D3EBA9127E6E
FILE: 01 We Can Work Together.flac
  Size: 39561117 Hash: EE03B482E3BE761025AF0D9CA653F766 Accuracy: -m0
  Conclusion: CDDA 100%
  Signature: 40F4632799FC357E224C889952ADA3109AA75189

Этот торрент недоступен для скачивания без регистрации, однако доступен по публичной magnet-ссылке (источники с публичных трекеров). Перед использованием ссылки прочтите, пожалуйста Пользовательское соглашение, а также как можно дольше оставайтесь на раздаче! Для того, чтобы скачать сам торрент-файл (который видит больше источников), а также для того, чтобы поблагодарить релизера, вам необходимо зарегистрироваться. Если регистрироваться лень - вы можете также попробовать скачать релиз по нашим партнерским ссылкам ниже. Кроме того, зарегистрированным пользователям не показывается всплывающая реклама при скачивании.

[underverse.su].t55918.torrent
Трекер: Зарегистрирован   [ 13.07.2015 16:35 ]  
Статус: проверено (by Бишеп at 13.07.2015 16:36)
Поблагодарили: пока никто не поблагодарил...
Тип торрента: публичный - доступные источники с открытых трекеров: 
Размер: 453 MB (занимает 0.1 DVDR, для записи нужно 1 болванка DVDR/RW)
 
 

Яндекс.Метрика powered by Sphinx


В Н И М А Н И Е
Сайт не распространяет и не хранит электронные версии произведений, а лишь бесплатно и без коммерческой выгоды (не требуя взамен платы,
SMS и т.д.) предоставляет доступ к создаваемому пользователями каталогу ссылок на торрент-файлы, которые содержат только списки хеш-сумм.
Убедительная просьба с жалобами обращаться напрямую к пользователю, разместившему торрент файл.

Вверх