Loading...
Error

(Disco) VA - Disco Fever (2001) [FLAC (Tracks+.CUE), Lossless]

Статистика раздачи
Размер:  474 MB   |    Зарегистрирован:  6 лет 8 месяцев   |    Скачан:  5 раз

Полного источника не было: 2 месяца 6 дней

Сидов:  0  |  0 KB/s  ]   Личеров:  0  |  0 KB/s  ]

* - сиды/пиры с внешних источников

   
 
Автор Сообщение

Бишеп Пол:Муж

01-Фев-2016 16:35

VA - Disco Fever

Жанр: Disco
Год выпуска: 2001
Источник: CD
Производитель диска: Crimson – CRIMCD312
Аудиокодек: FLAC
Тип рипа: Tracks+.CUE
Битрейт аудио: lossless
Продолжительность: 01:10:59


Треклист:
01. KC & The Sunshine Band - That's The Way I Like It
02. Donna Summer - I Feel Love (Full Length Version)
03. Fatback Band, The - (Are You Ready) Do The Bus Stop
04. Detroit Emeralds - Feel The Need In Me
05. Van McCoy & The Soul City Symphony - The Hustle
06. Melba Moore - This Is It
07. Rimshots, The - 7-6-5-4-3-2-1 (Blow Your Whistle)
08. Andrea True Connection - More, More, More (Full Length Mix)
09. Crispy & Co. - Brazi
10. Real Thing, The - Can You Feel The Force
11. Kool & The Gang - Get Down On It
12. Garnet Mimms & Truckin' Co. - What It Is (Parts 1 & 2)
13. Isaac Hayes - Theme From 'Shaft'
14. Shalamar - Take That To The Bank
15. Sylvester - You Make Me Feel (Mighty Real) (Full Length Version)
16. Gloria Gaynor - Never Can Say Goodbye

Код:

Exact Audio Copy V1.1 from 23. June 2015

EAC extraction logfile from 16. January 2016, 14:17

Various / Disco Fever

Used drive  : ASUS    BW-12D1S-U   Adapter: 1  ID: 1

Read mode               : Secure
Utilize accurate stream : Yes
Defeat audio cache      : Yes
Make use of C2 pointers : No

Read offset correction                      : 667
Overread into Lead-In and Lead-Out          : No
Fill up missing offset samples with silence : Yes
Delete leading and trailing silent blocks   : No
Null samples used in CRC calculations       : Yes
Used interface                              : Native Win32 interface for Win NT & 2000
Gap handling                                : Appended to previous track

Used output format              : User Defined Encoder
Selected bitrate                : 768 kBit/s
Quality                         : High
Add ID3 tag                     : No
Command line compressor         : D:\Program Files (x86)\Exact Audio Copy\Flac\flac.exe
Additional command line options : -8 -V -T "TITLE=%title%" -T "ARTIST=%artist%" -T "ALBUMARTIST=%albumartist%" -T "ALBUM=%albumtitle%" -T "DATE=%year%" -T "TRACKNUMBER=%tracknr%" -T "TRACKTOTAL=%numtracks%" -T "GENRE=%genre%" -T "COMMENT=%comment%" -T "PERFORMER=%albuminterpret%" -T "COMPOSER=%composer%" %source% -o %dest%

TOC of the extracted CD

     Track |   Start  |  Length  | Start sector | End sector
    ---------------------------------------------------------
        1  |  0:00.00 |  3:05.57 |         0    |    13931   
        2  |  3:05.57 |  5:52.57 |     13932    |    40388   
        3  |  8:58.39 |  3:16.36 |     40389    |    55124   
        4  | 12:15.00 |  3:41.69 |     55125    |    71768   
        5  | 15:56.69 |  4:04.30 |     71769    |    90098   
        6  | 20:01.24 |  3:31.26 |     90099    |   105949   
        7  | 23:32.50 |  3:32.39 |    105950    |   121888   
        8  | 27:05.14 |  6:17.17 |    121889    |   150180   
        9  | 33:22.31 |  3:32.24 |    150181    |   166104   
       10  | 36:54.55 |  4:07.16 |    166105    |   184645   
       11  | 41:01.71 |  4:47.46 |    184646    |   206216   
       12  | 45:49.42 |  8:55.34 |    206217    |   246375   
       13  | 54:45.01 |  3:17.73 |    246376    |   261223   
       14  | 58:02.74 |  3:27.14 |    261224    |   276762   
       15  | 61:30.13 |  6:30.49 |    276763    |   306061   
       16  | 68:00.62 |  2:59.74 |    306062    |   319560   

Track  1

     Filename D:\Video&Music&Books\2001 - Disco Fever\01 KC & The Sunshine Band , That's The Way I Like It.wav

     Pre-gap length  0:00:02.00

     Peak level 99.8 %
     Extraction speed 4.5 X
     Track quality 100.0 %
     Test CRC 94E385E1
     Copy CRC 94E385E1
     Accurately ripped (confidence 5)  [A603DA49]  (AR v2)
     Copy OK

Track  2

     Filename D:\Video&Music&Books\2001 - Disco Fever\02 Donna Summer , I Feel Love (Full Length Version).wav

     Pre-gap length  0:00:01.50

     Peak level 99.8 %
     Extraction speed 5.3 X
     Track quality 100.0 %
     Test CRC 6CB1A2FD
     Copy CRC 6CB1A2FD
     Accurately ripped (confidence 4)  [CCB8A2C7]  (AR v2)
     Copy OK

Track  3

     Filename D:\Video&Music&Books\2001 - Disco Fever\03 Fatback Band, The , (Are You Ready) Do The Bus Stop.wav

     Pre-gap length  0:00:01.50

     Peak level 99.8 %
     Extraction speed 5.3 X
     Track quality 100.0 %
     Test CRC 0F34D65A
     Copy CRC 0F34D65A
     Accurately ripped (confidence 4)  [586C15EA]  (AR v2)
     Copy OK

Track  4

     Filename D:\Video&Music&Books\2001 - Disco Fever\04 Detroit Emeralds , Feel The Need In Me.wav

     Pre-gap length  0:00:01.50

     Peak level 99.8 %
     Extraction speed 5.7 X
     Track quality 100.0 %
     Test CRC 3228D505
     Copy CRC 3228D505
     Accurately ripped (confidence 5)  [C97669F5]  (AR v2)
     Copy OK

Track  5

     Filename D:\Video&Music&Books\2001 - Disco Fever\05 Van McCoy & The Soul City Symphony , The Hustle.wav

     Pre-gap length  0:00:01.50

     Peak level 99.8 %
     Extraction speed 6.1 X
     Track quality 100.0 %
     Test CRC 11D8CEA9
     Copy CRC 11D8CEA9
     Accurately ripped (confidence 5)  [349FF110]  (AR v2)
     Copy OK

Track  6

     Filename D:\Video&Music&Books\2001 - Disco Fever\06 Melba Moore , This Is It.wav

     Pre-gap length  0:00:01.50

     Peak level 99.8 %
     Extraction speed 6.2 X
     Track quality 100.0 %
     Test CRC 18502F2F
     Copy CRC 18502F2F
     Accurately ripped (confidence 5)  [94344290]  (AR v2)
     Copy OK

Track  7

     Filename D:\Video&Music&Books\2001 - Disco Fever\07 Rimshots, The , 7-6-5-4-3-2-1 (Blow Your Whistle).wav

     Pre-gap length  0:00:01.50

     Peak level 99.8 %
     Extraction speed 6.4 X
     Track quality 100.0 %
     Test CRC C11D5FA5
     Copy CRC C11D5FA5
     Accurately ripped (confidence 5)  [BDBE7B2C]  (AR v2)
     Copy OK

Track  8

     Filename D:\Video&Music&Books\2001 - Disco Fever\08 Andrea True Connection , More, More, More (Full Length Mix).wav

     Pre-gap length  0:00:01.50

     Peak level 99.8 %
     Extraction speed 7.2 X
     Track quality 100.0 %
     Test CRC 08346F30
     Copy CRC 08346F30
     Accurately ripped (confidence 5)  [747E3540]  (AR v2)
     Copy OK

Track  9

     Filename D:\Video&Music&Books\2001 - Disco Fever\09 Crispy & Co. , Brazil.wav

     Pre-gap length  0:00:01.50

     Peak level 99.8 %
     Extraction speed 6.9 X
     Track quality 100.0 %
     Test CRC D6EB5514
     Copy CRC D6EB5514
     Accurately ripped (confidence 5)  [8E994E57]  (AR v2)
     Copy OK

Track 10

     Filename D:\Video&Music&Books\2001 - Disco Fever\10 Real Thing, The , Can You Feel The Force.wav

     Pre-gap length  0:00:01.50

     Peak level 99.8 %
     Extraction speed 7.0 X
     Track quality 100.0 %
     Test CRC 322EF16A
     Copy CRC 322EF16A
     Accurately ripped (confidence 5)  [2C30449D]  (AR v2)
     Copy OK

Track 11

     Filename D:\Video&Music&Books\2001 - Disco Fever\11 Kool & The Gang , Get Down On It.wav

     Pre-gap length  0:00:01.50

     Peak level 99.8 %
     Extraction speed 7.5 X
     Track quality 100.0 %
     Test CRC 99B82799
     Copy CRC 99B82799
     Accurately ripped (confidence 4)  [DEF8BE8D]  (AR v2)
     Copy OK

Track 12

     Filename D:\Video&Music&Books\2001 - Disco Fever\12 Garnet Mimms & Truckin' Co. , What It Is (Parts 1 & 2).wav

     Pre-gap length  0:00:01.50

     Peak level 99.8 %
     Extraction speed 8.0 X
     Track quality 100.0 %
     Test CRC 6BF6A4EB
     Copy CRC 6BF6A4EB
     Accurately ripped (confidence 5)  [2F087A92]  (AR v2)
     Copy OK

Track 13

     Filename D:\Video&Music&Books\2001 - Disco Fever\13 Isaac Hayes , Theme From ''Shaft''.wav

     Pre-gap length  0:00:01.50

     Peak level 97.8 %
     Extraction speed 7.3 X
     Track quality 100.0 %
     Test CRC 15A77EF5
     Copy CRC 15A77EF5
     Accurately ripped (confidence 5)  [A338E492]  (AR v2)
     Copy OK

Track 14

     Filename D:\Video&Music&Books\2001 - Disco Fever\14 Shalamar , Take That To The Bank.wav

     Pre-gap length  0:00:01.50

     Peak level 99.8 %
     Extraction speed 7.6 X
     Track quality 100.0 %
     Test CRC 279C34CD
     Copy CRC 279C34CD
     Accurately ripped (confidence 4)  [E5EC24CD]  (AR v2)
     Copy OK

Track 15

     Filename D:\Video&Music&Books\2001 - Disco Fever\15 Sylvester , You Make Me Feel (Mighty Real) (Full Length Version).wav

     Pre-gap length  0:00:01.50

     Peak level 99.8 %
     Extraction speed 8.7 X
     Track quality 100.0 %
     Test CRC 9E89451D
     Copy CRC 9E89451D
     Accurately ripped (confidence 4)  [E05959A2]  (AR v2)
     Copy OK

Track 16

     Filename D:\Video&Music&Books\2001 - Disco Fever\16 Gloria Gaynor , Never Can Say Goodbye.wav

     Pre-gap length  0:00:01.50

     Peak level 99.8 %
     Extraction speed 8.0 X
     Track quality 100.0 %
     Test CRC 9D2AD2FF
     Copy CRC 9D2AD2FF
     Accurately ripped (confidence 4)  [A40C2F2D]  (AR v2)
     Copy OK

All tracks accurately ripped

No errors occurred

End of status report

---- CUETools DB Plugin V2.1.6

[CTDB TOCID: 2Bck9fKH3GRoLjWxHnukLvG4rRs-] found
Submit result: 2Bck9fKH3GRoLjWxHnukLvG4rRs- has been confirmed
Track | CTDB Status
  1   | (4/4) Accurately ripped
  2   | (4/4) Accurately ripped
  3   | (4/4) Accurately ripped
  4   | (4/4) Accurately ripped
  5   | (4/4) Accurately ripped
  6   | (4/4) Accurately ripped
  7   | (4/4) Accurately ripped
  8   | (4/4) Accurately ripped
  9   | (4/4) Accurately ripped
 10   | (4/4) Accurately ripped
 11   | (4/4) Accurately ripped
 12   | (4/4) Accurately ripped
 13   | (4/4) Accurately ripped
 14   | (4/4) Accurately ripped
 15   | (4/4) Accurately ripped
 16   | (4/4) Accurately ripped

==== Log checksum 3B483CCD5D7EE8C8F6185ADC7C8C176A591EE5006FAC61230BFA31CC5E96DDFD ====

Код:

REM DATE 2001
REM DISCID DA10A410
REM COMMENT "ExactAudioCopy v1.1"
PERFORMER "Various"
TITLE "Disco Fever"
FILE "01_KC & The Sunshine Band ,-That's The Way I Like It;.wav" WAVE
  TRACK 01 AUDIO
    TITLE "That's The Way I Like It"
    PERFORMER "KC & The Sunshine Band , "
    INDEX 01 00:00:00
  TRACK 02 AUDIO
    TITLE "I Feel Love (Full Length Version)"
    PERFORMER "Donna Summer , "
    INDEX 00 03:04:07
FILE "02_Donna Summer ,-I Feel Love (Full Length Version);.wav" WAVE
    INDEX 01 00:00:00
  TRACK 03 AUDIO
    TITLE "(Are You Ready) Do The Bus Stop"
    PERFORMER "Fatback Band, The , "
    INDEX 00 05:51:07
FILE "03_Fatback Band, The ,-(Are You Ready) Do The Bus Stop;.wav" WAVE
    INDEX 01 00:00:00
  TRACK 04 AUDIO
    TITLE "Feel The Need In Me"
    PERFORMER "Detroit Emeralds , "
    INDEX 00 03:14:61
FILE "04_Detroit Emeralds ,-Feel The Need In Me;.wav" WAVE
    INDEX 01 00:00:00
  TRACK 05 AUDIO
    TITLE "The Hustle"
    PERFORMER "Van McCoy & The Soul City Symphony , "
    INDEX 00 03:40:19
FILE "05_Van McCoy & The Soul City Symphony ,-The Hustle;.wav" WAVE
    INDEX 01 00:00:00
  TRACK 06 AUDIO
    TITLE "This Is It"
    PERFORMER "Melba Moore , "
    INDEX 00 04:02:55
FILE "06_Melba Moore ,-This Is It;.wav" WAVE
    INDEX 01 00:00:00
  TRACK 07 AUDIO
    TITLE "7-6-5-4-3-2-1 (Blow Your Whistle)"
    PERFORMER "Rimshots, The , "
    INDEX 00 03:29:51
FILE "07_Rimshots, The ,-7-6-5-4-3-2-1 (Blow Your Whistle);.wav" WAVE
    INDEX 01 00:00:00
  TRACK 08 AUDIO
    TITLE "More, More, More (Full Length Mix)"
    PERFORMER "Andrea True Connection , "
    INDEX 00 03:30:64
FILE "08_Andrea True Connection ,-More, More, More (Full Length Mix);.wav" WAVE
    INDEX 01 00:00:00
  TRACK 09 AUDIO
    TITLE "Brazil"
    PERFORMER "Crispy & Co. , "
    INDEX 00 06:15:42
FILE "09_Crispy & Co. ,-Brazil;.wav" WAVE
    INDEX 01 00:00:00
  TRACK 10 AUDIO
    TITLE "Can You Feel The Force"
    PERFORMER "Real Thing, The , "
    INDEX 00 03:30:49
FILE "10_Real Thing, The ,-Can You Feel The Force;.wav" WAVE
    INDEX 01 00:00:00
  TRACK 11 AUDIO
    TITLE "Get Down On It"
    PERFORMER "Kool & The Gang , "
    INDEX 00 04:05:41
FILE "11_Kool & The Gang ,-Get Down On It;.wav" WAVE
    INDEX 01 00:00:00
  TRACK 12 AUDIO
    TITLE "What It Is (Parts 1 & 2)"
    PERFORMER "Garnet Mimms & Truckin' Co. , "
    INDEX 00 04:45:71
FILE "12_Garnet Mimms & Truckin' Co. ,-What It Is (Parts 1 & 2);.wav" WAVE
    INDEX 01 00:00:00
  TRACK 13 AUDIO
    TITLE "Theme From 'Shaft'"
    PERFORMER "Isaac Hayes , "
    INDEX 00 08:53:59
FILE "13_Isaac Hayes ,-Theme From ''Shaft'';.wav" WAVE
    INDEX 01 00:00:00
  TRACK 14 AUDIO
    TITLE "Take That To The Bank"
    PERFORMER "Shalamar , "
    INDEX 00 03:16:23
FILE "14_Shalamar ,-Take That To The Bank;.wav" WAVE
    INDEX 01 00:00:00
  TRACK 15 AUDIO
    TITLE "You Make Me Feel (Mighty Real) (Full Length Version)"
    PERFORMER "Sylvester , "
    INDEX 00 03:25:39
FILE "15_Sylvester ,-You Make Me Feel (Mighty Real) (Full Length Version);.wav" WAVE
    INDEX 01 00:00:00
  TRACK 16 AUDIO
    TITLE "Never Can Say Goodbye"
    PERFORMER "Gloria Gaynor , "
    INDEX 00 06:28:74
FILE "16_Gloria Gaynor ,-Never Can Say Goodbye;.wav" WAVE
    INDEX 01 00:00:00

Этот торрент недоступен для скачивания без регистрации, однако доступен по публичной magnet-ссылке (источники с публичных трекеров). Перед использованием ссылки прочтите, пожалуйста Пользовательское соглашение, а также как можно дольше оставайтесь на раздаче! Для того, чтобы скачать сам торрент-файл (который видит больше источников), а также для того, чтобы поблагодарить релизера, вам необходимо зарегистрироваться. Если регистрироваться лень - вы можете также попробовать скачать релиз по нашим партнерским ссылкам ниже. Кроме того, зарегистрированным пользователям не показывается всплывающая реклама при скачивании.

[underverse.su].t62556.torrent
Трекер: Зарегистрирован   [ 01.02.2016 16:35 ]  
Статус: проверено (by Бишеп at 01.02.2016 16:36)
Поблагодарили: пока никто не поблагодарил...
Тип торрента: публичный - доступные источники с открытых трекеров: 
Размер: 474 MB (занимает 0.11 DVDR, для записи нужно 1 болванка DVDR/RW)
 
 

Яндекс.Метрика powered by Sphinx


В Н И М А Н И Е
Сайт не распространяет и не хранит электронные версии произведений, а лишь бесплатно и без коммерческой выгоды (не требуя взамен платы,
SMS и т.д.) предоставляет доступ к создаваемому пользователями каталогу ссылок на торрент-файлы, которые содержат только списки хеш-сумм.
Убедительная просьба с жалобами обращаться напрямую к пользователю, разместившему торрент файл.

Вверх