Loading...
Error

(IDM) Clark - Death Peak (Japan Edition) (2017) [FLAC (Tracks+.CUE), lossless]

Статистика раздачи
Размер:  322 MB   |    Зарегистрирован:  3 года 3 месяца   |    Скачан:  3 раза

Полного источника не было: 2 месяца 28 дней

Сидов:  0  |  0 KB/s  ]   Личеров:  0  |  0 KB/s  ]

* - сиды/пиры с внешних источников

   
 
Автор Сообщение

Darkferse Пол:Жен

12-Апр-2017 08:35

Clark - Death Peak (Japan Edition)

Жанр: IDM
Год выпуска: 2017
Источник: CD
Производитель: Warp Records / Beat Records
Аудиокодек: FLAC
Тип рипа: Tracks+.CUE
Битрейт: lossless
Продолжительность: 00:51:01

Треклист:

01. Spring But Dark
02. Butterfly Prowler
03. Peak Magnetic
04. Hoova
05. Slap Drones
06. Aftermath
07. Catastrophe Anthem
08. Living Fantasy
09. Un U.K.
10. Licht (Pink Strobe Version) (Japan Bonus Track)

Код:

Exact Audio Copy V1.3 from 2. September 2016

EAC extraction logfile from 10. April 2017, 18:55

Clark / Death Peak

Used drive  : PLEXTOR DVDR   PX-891SAW   Adapter: 1  ID: 0

Read mode               : Secure
Utilize accurate stream : Yes
Defeat audio cache      : Yes
Make use of C2 pointers : No

Read offset correction                      : 48
Overread into Lead-In and Lead-Out          : No
Fill up missing offset samples with silence : Yes
Delete leading and trailing silent blocks   : No
Null samples used in CRC calculations       : Yes
Used interface                              : Native Win32 interface for Win NT & 2000
Gap handling                                : Appended to previous track

Used output format              : User Defined Encoder
Selected bitrate                : 1024 kBit/s
Quality                         : High
Add ID3 tag                     : No
Command line compressor         : C:\Program Files (x86)\Exact Audio Copy\Flac\flac.exe
Additional command line options : -8 -V -T "ARTIST=%artist%" -T "TITLE=%title%" -T "ALBUM=%albumtitle%" -T "DATE=%year%" -T "TRACKNUMBER=%tracknr%" -T "GENRE=%genre%" -T "PERFORMER=%albuminterpret%" -T "COMPOSER=%composer%" %haslyrics%--tag-from-file=LYRICS="%lyricsfile%"%haslyrics% -T "ALBUMARTIST=%albumartist%" -T "DISCNUMBER=%cdnumber%" -T "TOTALDISCS=%totalcds%" -T "TOTALTRACKS=%numtracks%" -T "COMMENT=%comment%" %source% -o %dest%

TOC of the extracted CD

     Track |   Start  |  Length  | Start sector | End sector
    ---------------------------------------------------------
        1  |  0:00.00 |  1:17.13 |         0    |     5787
        2  |  1:17.13 |  4:27.22 |      5788    |    25834
        3  |  5:44.35 |  5:43.13 |     25835    |    51572
        4  | 11:27.48 |  5:07.46 |     51573    |    74643
        5  | 16:35.19 |  4:19.73 |     74644    |    94141
        6  | 20:55.17 |  2:02.62 |     94142    |   103353
        7  | 22:58.04 |  6:35.60 |    103354    |   133038
        8  | 29:33.64 |  4:07.71 |    133039    |   151634
        9  | 33:41.60 | 10:01.47 |    151635    |   196756
       10  | 43:43.32 |  7:17.65 |    196757    |   229596

Track  1

     Filename D:\Rips\01 - Spring But Dark.wav

     Pre-gap length  0:00:02.00

     Peak level 98.8 %
     Extraction speed 3.6 X
     Track quality 100.0 %
     Test CRC F6109E9E
     Copy CRC F6109E9E
     Track not present in AccurateRip database
     Copy OK

Track  2

     Filename D:\Rips\02 - Butterfly Prowler.wav

     Peak level 98.8 %
     Extraction speed 5.0 X
     Track quality 100.0 %
     Test CRC 58C997DC
     Copy CRC 58C997DC
     Track not present in AccurateRip database
     Copy OK

Track  3

     Filename D:\Rips\03 - Peak Magnetic.wav

     Peak level 98.8 %
     Extraction speed 5.8 X
     Track quality 100.0 %
     Test CRC F3C056DC
     Copy CRC F3C056DC
     Track not present in AccurateRip database
     Copy OK

Track  4

     Filename D:\Rips\04 - Hoova.wav

     Peak level 98.9 %
     Extraction speed 6.2 X
     Track quality 100.0 %
     Test CRC CD7889B2
     Copy CRC CD7889B2
     Track not present in AccurateRip database
     Copy OK

Track  5

     Filename D:\Rips\05 - Slap Drones.wav

     Pre-gap length  0:00:00.08

     Peak level 98.8 %
     Extraction speed 6.6 X
     Track quality 100.0 %
     Test CRC 23188A8C
     Copy CRC 23188A8C
     Track not present in AccurateRip database
     Copy OK

Track  6

     Filename D:\Rips\06 - Aftermath.wav

     Pre-gap length  0:00:01.46

     Peak level 98.8 %
     Extraction speed 3.3 X
     Track quality 99.9 %
     Test CRC 78A8D5AD
     Copy CRC 78A8D5AD
     Track not present in AccurateRip database
     Copy OK

Track  7

     Filename D:\Rips\07 - Catastrophe Anthem.wav

     Pre-gap length  0:00:01.46

     Peak level 98.8 %
     Extraction speed 7.6 X
     Track quality 100.0 %
     Test CRC 041C4876
     Copy CRC 041C4876
     Track not present in AccurateRip database
     Copy OK

Track  8

     Filename D:\Rips\08 - Living Fantasy.wav

     Peak level 98.8 %
     Extraction speed 7.6 X
     Track quality 100.0 %
     Test CRC FE420FFF
     Copy CRC FE420FFF
     Track not present in AccurateRip database
     Copy OK

Track  9

     Filename D:\Rips\09 - Un U.K..wav

     Pre-gap length  0:00:03.94

     Peak level 98.8 %
     Extraction speed 8.6 X
     Track quality 100.0 %
     Test CRC DF72A2AF
     Copy CRC DF72A2AF
     Track not present in AccurateRip database
     Copy OK

Track 10

     Filename D:\Rips\10 - Licht (Pink Strobe Version).wav

     Pre-gap length  0:00:04.98

     Peak level 98.8 %
     Extraction speed 8.7 X
     Track quality 100.0 %
     Test CRC F200899F
     Copy CRC F200899F
     Track not present in AccurateRip database
     Copy OK

None of the tracks are present in the AccurateRip database

No errors occurred

End of status report

---- CUETools DB Plugin V2.1.6

[CTDB TOCID: fL_C_yAXSRNYnwuTxHyT4VPOoEw-] disk not present in database
Submit result: fL_C_yAXSRNYnwuTxHyT4VPOoEw- has been uploaded

==== Log checksum 1509E266FDDE160FBB8C4480506D1949DDE651BA7E08ACCCA00E6606F6F17513 ====

Код:

REM GENRE Electronic
REM DATE 2017
REM DISCID 940BF50A
REM COMMENT "ExactAudioCopy v1.3"
PERFORMER "Clark"
TITLE "Death Peak"
REM COMPOSER ""
FILE "01 - Spring But Dark.wav" WAVE
  TRACK 01 AUDIO
    TITLE "Spring But Dark"
    PERFORMER "Clark"
    REM COMPOSER ""
    ISRC GBBPW1700001
    INDEX 01 00:00:00
FILE "02 - Butterfly Prowler.wav" WAVE
  TRACK 02 AUDIO
    TITLE "Butterfly Prowler"
    PERFORMER "Clark"
    REM COMPOSER ""
    ISRC GBBPW1700002
    INDEX 01 00:00:00
FILE "03 - Peak Magnetic.wav" WAVE
  TRACK 03 AUDIO
    TITLE "Peak Magnetic"
    PERFORMER "Clark"
    REM COMPOSER ""
    ISRC GBBPW1700003
    INDEX 01 00:00:00
FILE "04 - Hoova.wav" WAVE
  TRACK 04 AUDIO
    TITLE "Hoova"
    PERFORMER "Clark"
    REM COMPOSER ""
    ISRC GBBPW1700004
    INDEX 01 00:00:00
  TRACK 05 AUDIO
    TITLE "Slap Drones"
    PERFORMER "Clark"
    REM COMPOSER ""
    ISRC GBBPW1700005
    INDEX 00 05:07:40
FILE "05 - Slap Drones.wav" WAVE
    INDEX 01 00:00:00
  TRACK 06 AUDIO
    TITLE "Aftermath"
    PERFORMER "Clark"
    REM COMPOSER ""
    ISRC GBBPW1700006
    INDEX 00 04:18:38
FILE "06 - Aftermath.wav" WAVE
    INDEX 01 00:00:00
  TRACK 07 AUDIO
    TITLE "Catastrophe Anthem"
    PERFORMER "Clark"
    REM COMPOSER ""
    ISRC GBBPW1700007
    INDEX 00 02:01:27
FILE "07 - Catastrophe Anthem.wav" WAVE
    INDEX 01 00:00:00
FILE "08 - Living Fantasy.wav" WAVE
  TRACK 08 AUDIO
    TITLE "Living Fantasy"
    PERFORMER "Clark"
    REM COMPOSER ""
    ISRC GBBPW1700008
    INDEX 01 00:00:00
  TRACK 09 AUDIO
    TITLE "Un U.K."
    PERFORMER "Clark"
    REM COMPOSER ""
    ISRC GBBPW1700009
    INDEX 00 04:04:00
FILE "09 - Un U.K..wav" WAVE
    INDEX 01 00:00:00
  TRACK 10 AUDIO
    TITLE "Licht (Pink Strobe Version)"
    PERFORMER "Clark"
    REM COMPOSER ""
    INDEX 00 09:56:48
FILE "10 - Licht (Pink Strobe Version).wav" WAVE
    INDEX 01 00:00:00
discogs.com

Этот торрент недоступен для скачивания без регистрации, однако доступен по публичной magnet-ссылке (источники с публичных трекеров). Перед использованием ссылки прочтите, пожалуйста Пользовательское соглашение, а также как можно дольше оставайтесь на раздаче! Для того, чтобы скачать сам торрент-файл (который видит больше источников), а также для того, чтобы поблагодарить релизера, вам необходимо зарегистрироваться. Если регистрироваться лень - вы можете также попробовать скачать релиз по нашим партнерским ссылкам ниже. Кроме того, зарегистрированным пользователям не показывается всплывающая реклама при скачивании.

[underverse.me].t81079.torrent
Трекер: Зарегистрирован   [ 12.04.2017 08:35 ]  

Статус: проверено (by Бишеп at 12.04.2017 09:45)
Поблагодарили: пока никто не поблагодарил...
Тип торрента: публичный - доступные источники с открытых трекеров: 
Размер: 322 MB (занимает 0,07 DVDR, для записи нужно 1 болванка DVDR/RW)
 
 
Похожие темы
Форум Тема Автор Торрент Отв. Посл. сооб.
IDM, Easy Listening (IDM) Clark - Death Peak (Japanese Edition) (2017) [MP3, 320 kbps CBR] Darkferse
0 | 0

0 | 951

2

12.04.2017 07:57

Архив (электронная музыка) (IDM) Clark - Death Peak (2017) [MP3, 320 kbps CBR] Darkferse
0 | 0

1 | 611

1

31.01.2018 20:21

25-Май-2018 15:49

Топик был перенесен из форума IDM, Easy Listening (Lossless) в форум Архив (HQ электронная музыка)


[cron robot]
 

Яндекс.Метрика powered by Sphinx


В Н И М А Н И Е
Сайт не распространяет и не хранит электронные версии произведений, а лишь бесплатно и без коммерческой выгоды (не требуя взамен платы,
SMS и т.д.) предоставляет доступ к создаваемому пользователями каталогу ссылок на торрент-файлы, которые содержат только списки хеш-сумм.
Убедительная просьба с жалобами обращаться напрямую к пользователю, разместившему торрент файл.

Вверх