Loading...
Error

Кон-Тики / Kon-Tiki (Тур Хейердал) [1949 г., документальный, приключения, DVDRip] VO

Статистика раздачи
Размер:  1,13 GB   |    Зарегистрирован:  2 года 3 месяца   |    Скачан:  1 раз

Полного источника не было: 2 месяца 23 дня

Сидов:  0  |  0 KB/s  ]   Личеров:  0  |  0 KB/s  ]

* - сиды/пиры с внешних источников

   
 
Автор Сообщение

ARI71 Пол:Муж

15-Июл-2017 07:58

Кон-Тики / Kon-Tiki


Год выпуска: 1949
Жанр: документальный, приключения
Страна: Норвегия , Швеция Artfilm, Janson Media, Sol Lesser Productions
Режиссер: Тур Хейердал
В ролях: Тур Хейердал, Кнут Хаугланд, Торстейн Рааби, Бенгт Даниэльссон, Эрик Хессельберг, Херман Ватзингер, Герде Вальт
Сюжет фильма:
Сейчас путешествия выглядят несколько иначе, чем, скажем, 70 лет назад. Комфорт - прежде всего. Но комфорт во многом "убивает" дух авантюризма. В 1947 году норвежец Тур Хейердал с пятью единомышленниками совершили беспрецедентное плавание на плоту из бальсового дерева, следуя пути переселенцев из Южной части Америки, которые назывались полинезийцами. Тур и его команда проделали сумасшедшую работу, разрушив все стереотипы, доказав, что проплыть Тихий океан в западном направлении из Южной Америки возможно. Почему Кон-Тики? Все очень просто - это название их плота паэ-паэ. Его соорудили и оснастили "по последнему слову техники". Во время путешествия команда из шести людей питалась рыбой, тут же пойманной в океане. Но Кон-Тики это так же название одного из главных персонажей полинезийских легенд. Как отмечается, Кон-Тики совершил плавание с востока, закончил на островах Полинезии. Именно Кон-Тики дал начало новой истории, рождая культуру, быт, систему поведения местных жителей..

Тур Хейерда́л (норв. Thor Heyerdahl, 6 октября 1914, Ларвик, Норвегия — 18 апреля 2002, Алассио, Италия) — норвежский археолог, путешественник и писатель, автор многих книг.


Качество видео: DVDRip

Продолжительность: 00:58:13
Формат: AVI
Видео: XviD, 704x528, 2567 kbps
Аудио: русский, одноголосый [профессиональный], AC3 2.0, 192 kbps

Код:

Общее
Полное имя : D:\Kon-Tiki.1949.DVDRip.VO.Lem.avi
Формат : AVI
Формат/Информация : Audio Video Interleave
Профиль формата : OpenDML
Размер файла : 1,13 Гбайт
Продолжительность : 58 м.
Общий поток : 2774 Кбит/сек

Видео
Идентификатор : 0
Формат : MPEG-4 Visual
Профиль формата : Advanced Simple@L5
Параметр BVOP формата : 1
Параметр QPel формата : Нет
Параметр GMC формата : Без точки перехода
Параметр матрицы формата : Выборочная
Идентификатор кодека : XVID
Идентификатор кодека/Подсказка : XviD
Продолжительность : 58 м.
Битрейт : 2567 Кбит/сек
Ширина : 704 пикселя
Высота : 528 пикселей
Соотношение сторон : 4:3
Частота кадров : 29,970 (29970/1000) кадров/сек
Цветовое пространство : YUV
Субдискретизация насыщенности : 4:2:0
Битовая глубина : 8 бит
Тип развёртки : Прогрессивная
Метод сжатия : С потерями
Бит/(Пиксели*Кадры) : 0.230
Размер потока : 1,04 Гбайт (93%)
Библиотека кодирования : XviD 73

Аудио
Идентификатор : 1
Формат : AC-3
Формат/Информация : Audio Coding 3
Расширение режима : CM (complete main)
Параметр Endianness формата : Big
Идентификатор кодека : 2000
Продолжительность : 58 м.
Вид битрейта : Постоянный
Битрейт : 192 Кбит/сек
Каналы : 2 канала
Расположение каналов : Front: L R
Частота : 48,0 КГц
Частота кадров : 31,250 кадров/сек (1536 spf)
Метод сжатия : С потерями
Размер потока : 79,9 Мбайт (7%)
Выравнивание : Соединение по промежуткам
Продолжительность промежутка : 32 мс. (0,96 видеокадр)
picpicpicpicpic
Для увеличения картинки щелкните мышкой по превью

Этот торрент недоступен для скачивания без регистрации, однако доступен по публичной magnet-ссылке (источники с публичных трекеров). Перед использованием ссылки прочтите, пожалуйста Пользовательское соглашение, а также как можно дольше оставайтесь на раздаче! Для того, чтобы скачать сам торрент-файл (который видит больше источников), а также для того, чтобы поблагодарить релизера, вам необходимо зарегистрироваться. Если регистрироваться лень - вы можете также попробовать скачать релиз по нашим партнерским ссылкам ниже. Кроме того, зарегистрированным пользователям не показывается всплывающая реклама при скачивании.

[underverse.me].t86239.torrent
Трекер: Зарегистрирован   [ 15.07.2017 07:58 ]  

Статус: проверено (by ARI71 at 15.07.2017 08:00)
Поблагодарили: пока никто не поблагодарил...
Тип торрента: публичный - доступные источники с открытых трекеров: 
Размер: 1,13 GB (занимает 0,26 DVDR, для записи нужно 1 болванка DVDR/RW)
 
 
Похожие темы
Форум Тема Автор Торрент Отв. Посл. сооб.
Зарубежное кино [DVDRip, Low-Res HDRip, и т.д.] Кон-Тики / Kon-Tiki (Хоаким Роннинг, Эспен Сандберг) [2012 г., боевик, драма, приключения, биография, история, HDRip] AVO (А.Карповский) + Nor 90ytr90
1 | 0

0 | 9081

68

20.12.2012 20:11

Зарубежное кино [DVDRip, Low-Res HDRip, и т.д.] Кон-Тики / Kon-Tiki (Хоаким Роннинг / Joachim Roenning, Эспен Сандберг / Espen Sandberg) [2012 г., боевик, драма, приключения, биография, история, HDRip] Dub TERRAN
23 | 0

0 | 1205

53

24.05.2013 18:40

Зарубежное кино [DVDRip, Low-Res HDRip, и т.д.] Кон-Тики / Kon-Tiki (Хоаким Роннинг, Эспен Сандберг) [2012 г., Приключения, Биография, История, BDRip-AVC] Dub (RUS, Лицензия) Ведьмочка
26 | 3

0 | 628

11

31.01.2015 22:03

Зарубежное кино [DVDRip, Low-Res HDRip, и т.д.] Кон-Тики / Kon-Tiki (Хоаким Роннинг, Эспен Сандберг) [2012 г., боевик, драма, приключения, биография, история, BDRip] AVO (Карповский) 90ytr90
1 | 0

0 | 832

6

22.02.2015 08:14

Зарубежное кино [HDDVDRip / BDRip / WEB-DL / HDTV 1080/720р] Кон-Тики / Kon-Tiki (Хоаким Роннинг, Эспен Сандберг) [2012 г., боевик, драма, приключения, биография, история, BDRip 1080p] Dub 90ytr90
10 | 0

0 | 913

10

22.02.2015 08:34

Архив (художественные фильмы) Кон-Тики / Kon-Tiki (Хоаким Роннинг, Эспен Сандберг) [2012 г., боевик, драма, приключения, биография, история, HDRip] AVO (Карповский) 90ytr90
0 | 0

1 | 8107

45

21.11.2018 17:13

Архив (HQ Underverse) Кон-Тики / Kon-Tiki (Хоаким Роннинг, Эспен Сандберг) [2012 г., боевик, драма, приключения, биография, история, BDRip] Dub HQ Underverse HQ Underverse
0 | 0

1 | 2121

99

24.05.2018 20:02

Архив (зарубежное кино высокого качества) Кон-Тики / Kon-Tiki (Хоаким Роннинг, Эспен Сандберг) [2012 г., боевик, драма, приключения, биография, история, BDRip 720p] AVO (А.Карповский) + Nor 90ytr90
1 | 0

1 | 8040

21

21.11.2018 18:21

ARI71 Пол:Муж

15-Июл-2017 08:02

Приятного всем просмотра!

Голосуй за трекер!!



25-Май-2018 15:27

Топик был перенесен из форума Другие фильмы в форум Архив (документальное кино)


[cron robot]
 

Яндекс.Метрика powered by Sphinx


В Н И М А Н И Е
Сайт не распространяет и не хранит электронные версии произведений, а лишь бесплатно и без коммерческой выгоды (не требуя взамен платы,
SMS и т.д.) предоставляет доступ к создаваемому пользователями каталогу ссылок на торрент-файлы, которые содержат только списки хеш-сумм.
Убедительная просьба с жалобами обращаться напрямую к пользователю, разместившему торрент файл.

Вверх