Loading...
Error

Байк-Шоу Русский Реактор [2017 г., ТВ-шоу, Экшн, HDTVRip 1080p]

Статистика раздачи
Размер:  1,57 GB   |    Зарегистрирован:  2 года 10 месяцев   |    Скачан:  3 раза
Сидов:  1  |  0 KB/s  ]   Личеров:  0  |  0 KB/s  ]

* - сиды/пиры с внешних источников

   
 
Автор Сообщение

vladimirrkievljanin 

20-Авг-2017 17:10

Байк-Шоу Русский Реактор


Год выпуска: 18.08.2017
Жанр: ТВ-шоу, Экшн
Страна: Россия
В ролях: Александр Залдостанов
Сюжет фильма:
Для решения задачи патриотического воспитания молодёжи в недрах нашей культуры, центром которой является мотоклуб «Ночные Волки», был рождён новый жанр патриотического спектакля-экшна, сравнимого по масштабам, пожалуй, только с открытием олимпиады, влияющий на молодёжь, креативный по форме, содержащий большие смыслы. Своеобразный ответ на информационную войну, ведущуюся против России.
Масштабное трюковое и пиротехническое, музыкальное и литературное действие. Движущиеся диковинные декорации, летающие мотоциклы и невероятные рискованные трюки, десятки разнообразных движущихся объектов военной техники разных эпох и назначения, сотни людей, учавствующих в программе. Всё это будет подчинено большому смыслу, связанному единой логикой и патриотическим порывом, направленным в будущее и адресованным стране.
Главное событие 22-го международного Байк-Шоу - «Кульминация»...
Качество видео: HDTVRip 1080p

Продолжительность: 01:01:25
Формат: MKV
Видео: x264, 1920x1080, 3 524 kbps
Аудио: русский, AAC 2.0, 126 kbps

Код:

General
Unique ID                   : 197629923358789270282602401689707856468 (0x94AE2383D54B389EB26781C0BD09C254)
Complete name               : D:\Film\Байк-Шоу Русский Реактор.mkv
Format                      : Matroska
Format version              : Version 4 / Version 2
File size                   : 1.57 GiB
Duration                    : 1 h 1 min
Overall bit rate            : 3 652 kb/s
Encoded date                : UTC 2017-08-19 18:37:09
Writing application         : mkvmerge v15.0.0 ('Duel with the Devil') 64-bit
Writing library             : libebml v1.3.5 + libmatroska v1.4.5

Video
ID                          : 1
Format                      : AVC
Format/Info                 : Advanced Video Codec
Format profile              : High@L4
Format settings, CABAC      : Yes
Format settings, RefFrames  : 2 frames
Codec ID                    : V_MPEG4/ISO/AVC
Duration                    : 1 h 1 min
Bit rate                    : 3 524 kb/s
Width                       : 1 920 pixels
Height                      : 1 080 pixels
Display aspect ratio        : 16:9
Frame rate mode             : Constant
Frame rate                  : 30.000 FPS
Color space                 : YUV
Chroma subsampling          : 4:2:0
Bit depth                   : 8 bits
Scan type                   : Progressive
Bits/(Pixel*Frame)          : 0.057
Stream size                 : 1.51 GiB (96%)
Title                       : RU
Language                    : Russian
Default                     : Yes
Forced                      : No
Color range                 : Limited
Color primaries             : BT.709
Transfer characteristics    : BT.709
Matrix coefficients         : BT.709

Audio
ID                          : 2
Format                      : AAC
Format/Info                 : Advanced Audio Codec
Format profile              : LC
Codec ID                    : A_AAC
Duration                    : 1 h 1 min
Bit rate                    : 126 kb/s
Channel(s)                  : 2 channels
Channel positions           : Front: L R
Sampling rate               : 44.1 kHz
Frame rate                  : 43.066 FPS (1024 SPF)
Compression mode            : Lossy
Stream size                 : 55.2 MiB (3%)
Title                       : RU
Language                    : Russian
Default                     : Yes
Forced                      : No
picpicpicpicpicpicpicpicpicpicpicpicpicpicpicpicpicpicpic
Для увеличения картинки щелкните мышкой по превью

Этот торрент недоступен для скачивания без регистрации, однако доступен по публичной magnet-ссылке (источники с публичных трекеров). Перед использованием ссылки прочтите, пожалуйста Пользовательское соглашение, а также как можно дольше оставайтесь на раздаче! Для того, чтобы скачать сам торрент-файл (который видит больше источников), а также для того, чтобы поблагодарить релизера, вам необходимо зарегистрироваться. Если регистрироваться лень - вы можете также попробовать скачать релиз по нашим партнерским ссылкам ниже. Кроме того, зарегистрированным пользователям не показывается всплывающая реклама при скачивании.

[underverse.me].t87503.torrent
Трекер: Зарегистрирован   [ 20.08.2017 17:13 ]  

Статус: проверено (by makkol at 20.08.2017 21:05)
Поблагодарили: пока никто не поблагодарил...
Тип торрента: публичный - доступные источники с открытых трекеров: 
Размер: 1,57 GB (занимает 0,36 DVDR, для записи нужно 1 болванка DVDR/RW)
 
 

Яндекс.Метрика powered by Sphinx


В Н И М А Н И Е
Сайт не распространяет и не хранит электронные версии произведений, а лишь бесплатно и без коммерческой выгоды (не требуя взамен платы,
SMS и т.д.) предоставляет доступ к создаваемому пользователями каталогу ссылок на торрент-файлы, которые содержат только списки хеш-сумм.
Убедительная просьба с жалобами обращаться напрямую к пользователю, разместившему торрент файл.

Вверх