Loading...
Error

(Techno, Jumpstyle, Hardstyle) Scooter - Scooter Forever (2017) [FLAC (Tracks+.CUE), lossless]

Статистика раздачи
Размер:  703 MB   |    Зарегистрирован:  2 года 11 месяцев   |    Скачан:  4 раза

Полного источника не было: 4 месяца 2 дня

Сидов:  0  |  0 KB/s  ]   Личеров:  0  |  0 KB/s  ]

* - сиды/пиры с внешних источников

   
 
Автор Сообщение

Darkferse Пол:Жен

03-Сен-2017 08:13

Scooter - Scooter Forever

Жанр: Techno, Jumpstyle, Hardstyle
Страна: Germany
Год выпуска: 2017
Источник: CD
Производитель: Sheffield Tunes, Kontor Records
Аудиокодек: FLAC
Тип рипа: Tracks+.CUE
Битрейт: lossless
Продолжительность: 01:25:16

Треклист:
[1:44] 01. Scooter - Foreplay
[3:17] 02. Scooter - In Rave We Trust
[3:13] 03. Scooter - Bora! Bora! Bora!
[2:55] 04. Scooter & JeBroer - My Gabber
[4:08] 05. Scooter - Wall Of China (See The Light)
[3:46] 06. Scooter - Shooting Stars (Move It To The Left)
[3:12] 07. Scooter - When I'm Raving
[3:22] 08. Scooter - Scooter Forever
[2:59] 09. Scooter - As The Years Go By
[3:00] 10. Scooter - Wild And Wicked
[3:23] 11. Scooter - The Roof
[4:01] 12. Scooter - Kiss Goodnight
[3:33] 13. Scooter & Dave 202 - Kill The Cat
[2:56] 14. Scooter - The Darkside
[2:18] 15. Scooter - Always Look On The Bright Side Of Life
[4:32] 01. Scooter - Universal Nation
[3:42] 02. Scooter - Symmetry C
[3:14] 03. Scooter - Unfuture
[4:08] 04. Scooter - The First Rebirth
[3:23] 05. Scooter - Sacred Cycles
[3:46] 06. Scooter - Burning Phibes
[3:33] 07. Scooter - Lost In Love
[3:55] 08. Scooter - The House Of House
[3:57] 09. Scooter - Lost In Space
[3:19] 10. Scooter - Tales Of Mystery

Код:

Exact Audio Copy V1.3 from 2. September 2016

EAC extraction logfile from 1. September 2017, 19:02

Scooter / Forever

Used drive  : PLEXTOR DVDR   PX-891SAF   Adapter: 1  ID: 0

Read mode               : Secure
Utilize accurate stream : Yes
Defeat audio cache      : Yes
Make use of C2 pointers : No

Read offset correction                      : 6
Overread into Lead-In and Lead-Out          : No
Fill up missing offset samples with silence : Yes
Delete leading and trailing silent blocks   : No
Null samples used in CRC calculations       : Yes
Used interface                              : Native Win32 interface for Win NT & 2000
Gap handling                                : Appended to previous track

Used output format              : User Defined Encoder
Selected bitrate                : 1024 kBit/s
Quality                         : High
Add ID3 tag                     : No
Command line compressor         : C:\Program Files (x86)\Exact Audio Copy\Flac\flac.exe
Additional command line options : -0 -V -T "ARTIST=%artist%" -T "TITLE=%title%" -T "ALBUM=%albumtitle%" -T "DATE=%year%" -T "TRACKNUMBER=%tracknr%" -T "TOTALTRACKS=%numtracks%" -T "GENRE=%genre%" -T "COMMENT=Naftamusic Release!" %source%

TOC of the extracted CD

     Track |   Start  |  Length  | Start sector | End sector
    ---------------------------------------------------------
        1  |  0:00.00 |  1:44.33 |         0    |     7832
        2  |  1:44.33 |  3:16.48 |      7833    |    22580
        3  |  5:01.06 |  3:12.38 |     22581    |    37018
        4  |  8:13.44 |  2:55.03 |     37019    |    50146
        5  | 11:08.47 |  4:08.14 |     50147    |    68760
        6  | 15:16.61 |  3:46.00 |     68761    |    85710
        7  | 19:02.61 |  3:12.11 |     85711    |   100121
        8  | 22:14.72 |  3:22.25 |    100122    |   115296
        9  | 25:37.22 |  2:59.04 |    115297    |   128725
       10  | 28:36.26 |  2:59.69 |    128726    |   142219
       11  | 31:36.20 |  3:22.61 |    142220    |   157430
       12  | 34:59.06 |  4:00.67 |    157431    |   175497
       13  | 38:59.73 |  3:32.74 |    175498    |   191471
       14  | 42:32.72 |  2:55.69 |    191472    |   204665
       15  | 45:28.66 |  2:18.25 |    204666    |   215040

Track  1

     Filename E:\Nafta Releases\Scooter - Forever (2 CD 2016)[FLAC] - Naftamusic\CD 1\01 - Foreplay.wav

     Pre-gap length  0:00:02.00

     Peak level 92.5 %
     Extraction speed 2.2 X
     Track quality 100.0 %
     Test CRC 04453095
     Copy CRC 04453095
     Track not present in AccurateRip database
     Copy OK

Track  2

     Filename E:\Nafta Releases\Scooter - Forever (2 CD 2016)[FLAC] - Naftamusic\CD 1\02 - In Rave We Trust.wav

     Peak level 93.9 %
     Extraction speed 2.7 X
     Track quality 100.0 %
     Test CRC 632D1241
     Copy CRC 632D1241
     Track not present in AccurateRip database
     Copy OK

Track  3

     Filename E:\Nafta Releases\Scooter - Forever (2 CD 2016)[FLAC] - Naftamusic\CD 1\03 - Bora! Bora! Bora!.wav

     Pre-gap length  0:00:01.37

     Peak level 93.6 %
     Extraction speed 2.9 X
     Track quality 100.0 %
     Test CRC 6C8398F0
     Copy CRC 6C8398F0
     Track not present in AccurateRip database
     Copy OK

Track  4

     Filename E:\Nafta Releases\Scooter - Forever (2 CD 2016)[FLAC] - Naftamusic\CD 1\04 - My Gabber.wav

     Pre-gap length  0:00:00.32

     Peak level 99.9 %
     Extraction speed 3.0 X
     Track quality 100.0 %
     Test CRC 4F6BE330
     Copy CRC 4F6BE330
     Track not present in AccurateRip database
     Copy OK

Track  5

     Filename E:\Nafta Releases\Scooter - Forever (2 CD 2016)[FLAC] - Naftamusic\CD 1\05 - Wall Of China (See The Light).wav

     Pre-gap length  0:00:01.05

     Peak level 85.1 %
     Extraction speed 3.4 X
     Track quality 100.0 %
     Test CRC 7E20CBB8
     Copy CRC 7E20CBB8
     Track not present in AccurateRip database
     Copy OK

Track  6

     Filename E:\Nafta Releases\Scooter - Forever (2 CD 2016)[FLAC] - Naftamusic\CD 1\06 - Shooting Stars (Move It To The Left).wav

     Peak level 99.9 %
     Extraction speed 3.6 X
     Track quality 100.0 %
     Test CRC 0B11AC31
     Copy CRC 0B11AC31
     Track not present in AccurateRip database
     Copy OK

Track  7

     Filename E:\Nafta Releases\Scooter - Forever (2 CD 2016)[FLAC] - Naftamusic\CD 1\07 - When I'm Raving.wav

     Pre-gap length  0:00:01.36

     Peak level 93.6 %
     Extraction speed 3.7 X
     Track quality 100.0 %
     Test CRC D292BC8A
     Copy CRC D292BC8A
     Track not present in AccurateRip database
     Copy OK

Track  8

     Filename E:\Nafta Releases\Scooter - Forever (2 CD 2016)[FLAC] - Naftamusic\CD 1\08 - Forever.wav

     Pre-gap length  0:00:01.49

     Peak level 90.1 %
     Extraction speed 3.9 X
     Track quality 100.0 %
     Test CRC C74AA7C6
     Copy CRC C74AA7C6
     Track not present in AccurateRip database
     Copy OK

Track  9

     Filename E:\Nafta Releases\Scooter - Forever (2 CD 2016)[FLAC] - Naftamusic\CD 1\09 - As The Years Go By.wav

     Pre-gap length  0:00:00.48

     Peak level 93.6 %
     Extraction speed 4.0 X
     Track quality 100.0 %
     Test CRC 6163F218
     Copy CRC 6163F218
     Track not present in AccurateRip database
     Copy OK

Track 10

     Filename E:\Nafta Releases\Scooter - Forever (2 CD 2016)[FLAC] - Naftamusic\CD 1\10 - Wild And Wicked.wav

     Pre-gap length  0:00:01.43

     Peak level 99.1 %
     Extraction speed 3.1 X
     Track quality 99.9 %
     Test CRC 411AEEA8
     Copy CRC 411AEEA8
     Track not present in AccurateRip database
     Copy OK

Track 11

     Filename E:\Nafta Releases\Scooter - Forever (2 CD 2016)[FLAC] - Naftamusic\CD 1\11 - The Roof.wav

     Pre-gap length  0:00:01.45

     Peak level 93.6 %
     Extraction speed 3.3 X
     Track quality 99.9 %
     Test CRC 0691CAD3
     Copy CRC 0691CAD3
     Track not present in AccurateRip database
     Copy OK

Track 12

     Filename E:\Nafta Releases\Scooter - Forever (2 CD 2016)[FLAC] - Naftamusic\CD 1\12 - Kiss Goodnight.wav

     Pre-gap length  0:00:01.35

     Peak level 99.9 %
     Extraction speed 4.6 X
     Track quality 100.0 %
     Test CRC B98A223D
     Copy CRC B98A223D
     Track not present in AccurateRip database
     Copy OK

Track 13

     Filename E:\Nafta Releases\Scooter - Forever (2 CD 2016)[FLAC] - Naftamusic\CD 1\13 - Kill The Cat.wav

     Pre-gap length  0:00:01.54

     Peak level 99.1 %
     Extraction speed 4.7 X
     Track quality 100.0 %
     Test CRC 3BBBC3FE
     Copy CRC 3BBBC3FE
     Track not present in AccurateRip database
     Copy OK

Track 14

     Filename E:\Nafta Releases\Scooter - Forever (2 CD 2016)[FLAC] - Naftamusic\CD 1\14 - The Darkside.wav

     Pre-gap length  0:00:01.48

     Peak level 98.0 %
     Extraction speed 3.4 X
     Track quality 99.9 %
     Test CRC 4A77D1C6
     Copy CRC 4A77D1C6
     Track not present in AccurateRip database
     Copy OK

Track 15

     Filename E:\Nafta Releases\Scooter - Forever (2 CD 2016)[FLAC] - Naftamusic\CD 1\15 - Always Look On The Bright Side Of Life.wav

     Pre-gap length  0:00:02.57

     Peak level 91.8 %
     Extraction speed 4.5 X
     Track quality 100.0 %
     Test CRC AEB79079
     Copy CRC AEB79079
     Track not present in AccurateRip database
     Copy OK

None of the tracks are present in the AccurateRip database

No errors occurred

End of status report

==== Log checksum EBDF2751FD0A5516D1622906CC904C478D5B67DD56DB3B949940FF72EA0C49B0 ====

Код:

Exact Audio Copy V1.3 from 2. September 2016

EAC extraction logfile from 1. September 2017, 20:08

Scooter / Forever

Used drive  : PLEXTOR DVDR   PX-891SAF   Adapter: 1  ID: 0

Read mode               : Secure
Utilize accurate stream : Yes
Defeat audio cache      : Yes
Make use of C2 pointers : No

Read offset correction                      : 6
Overread into Lead-In and Lead-Out          : No
Fill up missing offset samples with silence : Yes
Delete leading and trailing silent blocks   : No
Null samples used in CRC calculations       : Yes
Used interface                              : Native Win32 interface for Win NT & 2000
Gap handling                                : Appended to previous track

Used output format              : User Defined Encoder
Selected bitrate                : 1024 kBit/s
Quality                         : High
Add ID3 tag                     : No
Command line compressor         : C:\Program Files (x86)\Exact Audio Copy\Flac\flac.exe
Additional command line options : -0 -V -T "ARTIST=%artist%" -T "TITLE=%title%" -T "ALBUM=%albumtitle%" -T "DATE=%year%" -T "TRACKNUMBER=%tracknr%" -T "TOTALTRACKS=%numtracks%" -T "GENRE=%genre%" -T "COMMENT=Naftamusic Release!" %source%

TOC of the extracted CD

     Track |   Start  |  Length  | Start sector | End sector
    ---------------------------------------------------------
        1  |  0:00.00 |  4:31.42 |         0    |    20366
        2  |  4:31.42 |  3:41.40 |     20367    |    36981
        3  |  8:13.07 |  3:14.12 |     36982    |    51543
        4  | 11:27.19 |  4:08.26 |     51544    |    70169
        5  | 15:35.45 |  3:23.09 |     70170    |    85403
        6  | 18:58.54 |  3:46.36 |     85404    |   102389
        7  | 22:45.15 |  3:32.51 |    102390    |   118340
        8  | 26:17.66 |  3:54.69 |    118341    |   135959
        9  | 30:12.60 |  3:56.60 |    135960    |   153719
       10  | 34:09.45 |  3:19.26 |    153720    |   168670

Track  1

     Filename E:\Nafta Releases\Scooter - Forever (2 CD 2016)[FLAC] - Naftamusic\CD 2\01 - Universal Nation.wav

     Pre-gap length  0:00:02.00

     Peak level 93.6 %
     Extraction speed 2.2 X
     Track quality 99.9 %
     Test CRC F6145ACE
     Copy CRC F6145ACE
     Track not present in AccurateRip database
     Copy OK

Track  2

     Filename E:\Nafta Releases\Scooter - Forever (2 CD 2016)[FLAC] - Naftamusic\CD 2\02 - Symmetry C.wav

     Pre-gap length  0:00:00.74

     Peak level 93.6 %
     Extraction speed 2.9 X
     Track quality 100.0 %
     Test CRC 4A8ED183
     Copy CRC 4A8ED183
     Track not present in AccurateRip database
     Copy OK

Track  3

     Filename E:\Nafta Releases\Scooter - Forever (2 CD 2016)[FLAC] - Naftamusic\CD 2\03 - Unfuture.wav

     Pre-gap length  0:00:01.70

     Peak level 99.1 %
     Extraction speed 3.1 X
     Track quality 100.0 %
     Test CRC BE6BA538
     Copy CRC BE6BA538
     Track not present in AccurateRip database
     Copy OK

Track  4

     Filename E:\Nafta Releases\Scooter - Forever (2 CD 2016)[FLAC] - Naftamusic\CD 2\04 - The First Rebirth.wav

     Pre-gap length  0:00:01.05

     Peak level 91.5 %
     Extraction speed 2.7 X
     Track quality 99.9 %
     Test CRC A6346F34
     Copy CRC A6346F34
     Track not present in AccurateRip database
     Copy OK

Track  5

     Filename E:\Nafta Releases\Scooter - Forever (2 CD 2016)[FLAC] - Naftamusic\CD 2\05 - Sacred Cycles.wav

     Peak level 99.1 %
     Extraction speed 3.6 X
     Track quality 100.0 %
     Test CRC 97CE5322
     Copy CRC 97CE5322
     Track not present in AccurateRip database
     Copy OK

Track  6

     Filename E:\Nafta Releases\Scooter - Forever (2 CD 2016)[FLAC] - Naftamusic\CD 2\06 - Burning Phibes.wav

     Pre-gap length  0:00:02.01

     Peak level 99.9 %
     Extraction speed 3.8 X
     Track quality 100.0 %
     Test CRC 20169E95
     Copy CRC 20169E95
     Track not present in AccurateRip database
     Copy OK

Track  7

     Filename E:\Nafta Releases\Scooter - Forever (2 CD 2016)[FLAC] - Naftamusic\CD 2\07 - Lost In Love.wav

     Pre-gap length  0:00:01.37

     Peak level 99.1 %
     Extraction speed 4.0 X
     Track quality 100.0 %
     Test CRC 25CF3553
     Copy CRC 25CF3553
     Track not present in AccurateRip database
     Copy OK

Track  8

     Filename E:\Nafta Releases\Scooter - Forever (2 CD 2016)[FLAC] - Naftamusic\CD 2\08 - The House Of House.wav

     Peak level 93.6 %
     Extraction speed 4.2 X
     Track quality 100.0 %
     Test CRC 8AF65C52
     Copy CRC 8AF65C52
     Track not present in AccurateRip database
     Copy OK

Track  9

     Filename E:\Nafta Releases\Scooter - Forever (2 CD 2016)[FLAC] - Naftamusic\CD 2\09 - Lost In Space.wav

     Pre-gap length  0:00:01.57

     Peak level 90.4 %
     Extraction speed 4.4 X
     Track quality 100.0 %
     Test CRC EB53E9E4
     Copy CRC EB53E9E4
     Track not present in AccurateRip database
     Copy OK

Track 10

     Filename E:\Nafta Releases\Scooter - Forever (2 CD 2016)[FLAC] - Naftamusic\CD 2\10 - Tales Of Mystery.wav

     Peak level 100.0 %
     Extraction speed 4.4 X
     Track quality 100.0 %
     Test CRC 1AA5C15C
     Copy CRC 1AA5C15C
     Track not present in AccurateRip database
     Copy OK

None of the tracks are present in the AccurateRip database

No errors occurred

End of status report

==== Log checksum 40A836418687A39CFFB04B65A3FF2E4CE1F039ECCC0B3706D595E6D84C32675A ====

Код:

REM GENRE "Happy Hardcore, Rave"
REM DATE 2017
REM DISCID BE0B330F
REM COMMENT "ExactAudioCopy v1.3"
PERFORMER "Scooter"
TITLE "Forever"
REM COMPOSER ""
FILE "01 - Foreplay.wav" WAVE
  TRACK 01 AUDIO
    TITLE "Foreplay"
    PERFORMER "Scooter"
    REM COMPOSER ""
    INDEX 01 00:00:00
FILE "02 - In Rave We Trust.wav" WAVE
  TRACK 02 AUDIO
    TITLE "In Rave We Trust"
    PERFORMER "Scooter"
    REM COMPOSER ""
    INDEX 01 00:00:00
  TRACK 03 AUDIO
    TITLE "Bora! Bora! Bora!"
    PERFORMER "Scooter"
    REM COMPOSER ""
    INDEX 00 03:15:11
FILE "03 - Bora! Bora! Bora!.wav" WAVE
    INDEX 01 00:00:00
  TRACK 04 AUDIO
    TITLE "My Gabber"
    PERFORMER "Scooter & JeBroer"
    REM COMPOSER ""
    INDEX 00 03:12:06
FILE "04 - My Gabber.wav" WAVE
    INDEX 01 00:00:00
  TRACK 05 AUDIO
    TITLE "Wall Of China (See The Light)"
    PERFORMER "Scooter"
    REM COMPOSER ""
    INDEX 00 02:53:73
FILE "05 - Wall Of China (See The Light).wav" WAVE
    INDEX 01 00:00:00
FILE "06 - Shooting Stars (Move It To The Left).wav" WAVE
  TRACK 06 AUDIO
    TITLE "Shooting Stars (Move It To The Left)"
    PERFORMER "Scooter"
    REM COMPOSER ""
    INDEX 01 00:00:00
  TRACK 07 AUDIO
    TITLE "When I'm Raving"
    PERFORMER "Scooter"
    REM COMPOSER ""
    INDEX 00 03:44:39
FILE "07 - When I'm Raving.wav" WAVE
    INDEX 01 00:00:00
  TRACK 08 AUDIO
    TITLE "Forever"
    PERFORMER "Scooter"
    REM COMPOSER ""
    INDEX 00 03:10:37
FILE "08 - Forever.wav" WAVE
    INDEX 01 00:00:00
  TRACK 09 AUDIO
    TITLE "As The Years Go By"
    PERFORMER "Scooter"
    REM COMPOSER ""
    INDEX 00 03:21:52
FILE "09 - As The Years Go By.wav" WAVE
    INDEX 01 00:00:00
  TRACK 10 AUDIO
    TITLE "Wild And Wicked"
    PERFORMER "Scooter"
    REM COMPOSER ""
    INDEX 00 02:57:36
FILE "10 - Wild And Wicked.wav" WAVE
    INDEX 01 00:00:00
  TRACK 11 AUDIO
    TITLE "The Roof"
    PERFORMER "Scooter"
    REM COMPOSER ""
    INDEX 00 02:58:24
FILE "11 - The Roof.wav" WAVE
    INDEX 01 00:00:00
  TRACK 12 AUDIO
    TITLE "Kiss Goodnight"
    PERFORMER "Scooter"
    REM COMPOSER ""
    INDEX 00 03:21:26
FILE "12 - Kiss Goodnight.wav" WAVE
    INDEX 01 00:00:00
  TRACK 13 AUDIO
    TITLE "Kill The Cat"
    PERFORMER "Scooter & Dave 202"
    REM COMPOSER ""
    INDEX 00 03:59:13
FILE "13 - Kill The Cat.wav" WAVE
    INDEX 01 00:00:00
  TRACK 14 AUDIO
    TITLE "The Darkside"
    PERFORMER "Scooter"
    REM COMPOSER ""
    INDEX 00 03:31:26
FILE "14 - The Darkside.wav" WAVE
    INDEX 01 00:00:00
  TRACK 15 AUDIO
    TITLE "Always Look On The Bright Side Of Life"
    PERFORMER "Scooter"
    REM COMPOSER ""
    INDEX 00 02:53:12
FILE "15 - Always Look On The Bright Side Of Life.wav" WAVE
    INDEX 01 00:00:00

Код:

REM GENRE "Happy Hardcore, Rave"
REM DATE 2017
REM DISCID 8D08C80A
REM COMMENT "ExactAudioCopy v1.3"
PERFORMER "Scooter"
TITLE "Forever"
REM COMPOSER ""
FILE "01 - Universal Nation.wav" WAVE
  TRACK 01 AUDIO
    TITLE "Universal Nation"
    PERFORMER "Scooter"
    REM COMPOSER ""
    INDEX 01 00:00:00
  TRACK 02 AUDIO
    TITLE "Symmetry C"
    PERFORMER "Scooter"
    REM COMPOSER ""
    INDEX 00 04:30:43
FILE "02 - Symmetry C.wav" WAVE
    INDEX 01 00:00:00
  TRACK 03 AUDIO
    TITLE "Unfuture"
    PERFORMER "Scooter"
    REM COMPOSER ""
    INDEX 00 03:39:45
FILE "03 - Unfuture.wav" WAVE
    INDEX 01 00:00:00
  TRACK 04 AUDIO
    TITLE "The First Rebirth"
    PERFORMER "Scooter"
    REM COMPOSER ""
    INDEX 00 03:13:07
FILE "04 - The First Rebirth.wav" WAVE
    INDEX 01 00:00:00
FILE "05 - Sacred Cycles.wav" WAVE
  TRACK 05 AUDIO
    TITLE "Sacred Cycles"
    PERFORMER "Scooter"
    REM COMPOSER ""
    INDEX 01 00:00:00
  TRACK 06 AUDIO
    TITLE "Burning Phibes"
    PERFORMER "Scooter"
    REM COMPOSER ""
    INDEX 00 03:21:08
FILE "06 - Burning Phibes.wav" WAVE
    INDEX 01 00:00:00
  TRACK 07 AUDIO
    TITLE "Lost In Love"
    PERFORMER "Scooter"
    REM COMPOSER ""
    INDEX 00 03:44:74
FILE "07 - Lost In Love.wav" WAVE
    INDEX 01 00:00:00
FILE "08 - The House Of House.wav" WAVE
  TRACK 08 AUDIO
    TITLE "The House Of House"
    PERFORMER "Scooter"
    REM COMPOSER ""
    INDEX 01 00:00:00
  TRACK 09 AUDIO
    TITLE "Lost In Space"
    PERFORMER "Scooter"
    REM COMPOSER ""
    INDEX 00 03:53:12
FILE "09 - Lost In Space.wav" WAVE
    INDEX 01 00:00:00
FILE "10 - Tales Of Mystery.wav" WAVE
  TRACK 10 AUDIO
    TITLE "Tales Of Mystery"
    PERFORMER "Scooter"
    REM COMPOSER ""
    INDEX 01 00:00:00

Этот торрент недоступен для скачивания без регистрации, однако доступен по публичной magnet-ссылке (источники с публичных трекеров). Перед использованием ссылки прочтите, пожалуйста Пользовательское соглашение, а также как можно дольше оставайтесь на раздаче! Для того, чтобы скачать сам торрент-файл (который видит больше источников), а также для того, чтобы поблагодарить релизера, вам необходимо зарегистрироваться. Если регистрироваться лень - вы можете также попробовать скачать релиз по нашим партнерским ссылкам ниже. Кроме того, зарегистрированным пользователям не показывается всплывающая реклама при скачивании.

[underverse.me].t88158.torrent
Трекер: Зарегистрирован   [ 03.09.2017 08:13 ]  

Статус: проверено (by Darkferse at 03.09.2017 09:47)
Поблагодарили: пока никто не поблагодарил...
Тип торрента: публичный - доступные источники с открытых трекеров: 
Размер: 703 MB (занимает 0,16 DVDR, для записи нужно 1 болванка DVDR/RW)
 
 
Похожие темы
Форум Тема Автор Торрент Отв. Посл. сооб.
Hardcore, Hardstyle, Jumpstyle (Techno, Jumpstyle, Hardstyle) Scooter - Scooter Forever (2017) [AAC, 256 kbps VBR] Darkferse
0 | 0

0 | 998

1

31.08.2017 19:44

Архив (электронная музыка) (Techno, Jumpstyle, Hardstyle) Scooter - Scooter Forever (2017) [MP3, 320 kbps CBR] Darkferse
1 | 0

1 | 958

3

21.11.2018 19:49

20-Мар-2019 22:46

Топик был перенесен из форума Hardcore, Hardstyle, Jumpstyle (Lossless) в форум Архив (HQ электронная музыка)


[cron robot]
 

Яндекс.Метрика powered by Sphinx


В Н И М А Н И Е
Сайт не распространяет и не хранит электронные версии произведений, а лишь бесплатно и без коммерческой выгоды (не требуя взамен платы,
SMS и т.д.) предоставляет доступ к создаваемому пользователями каталогу ссылок на торрент-файлы, которые содержат только списки хеш-сумм.
Убедительная просьба с жалобами обращаться напрямую к пользователю, разместившему торрент файл.

Вверх