Loading...
Error

(Electronic, Downtempo) Seal - Kiss From A Rose (1994) [FLAC (Tracks+.Cue) Lossless]

Статистика раздачи
Размер:  252 MB   |    Зарегистрирован:  2 года   |    Скачан:  2 раза

Полного источника не было: 1 месяц 13 дней

Сидов:  0  |  0 KB/s  ]   Личеров:  0  |  0 KB/s  ]

* - сиды/пиры с внешних источников

   
 
Автор Сообщение

Бишеп Пол:Муж

18-Окт-2017 18:31

Seal - Kiss From A Rose

Жанр: Electronic, Downtempo
Год выпуска: 1994
Источник: CD
Производитель диска: ZTT - WPCR-119
Аудиокодек: FLAC
Тип рипа: Tracks+.CUE
Битрейт аудио: lossless
Продолжительность: 00:37:29


Треклист:
01 - Kiss Form A Rose (Kicks From A Rhodes)
02 - The Wind Cries Mary
03 - Kiss From A Rose (Kicks From A Rhodes Instrumental)
04 - Blues in 'E'
05 - I'm Alive (Son Of Bontempi)
06 - Crazy (Acoustic Version)
07 - Kiss From A Rose

Код:

Exact Audio Copy V0.99 prebeta 5 from 4. May 2009

EAC extraction logfile from 4. September 2010, 20:28

Seal / Kiss From A Rose (EP)

Used drive  : Optiarc DVD RW AD-5200A   Adapter: 1  ID: 0

Read mode               : Secure
Utilize accurate stream : Yes
Defeat audio cache      : Yes
Make use of C2 pointers : No

Read offset correction                      : 48
Overread into Lead-In and Lead-Out          : No
Fill up missing offset samples with silence : Yes
Delete leading and trailing silent blocks   : No
Null samples used in CRC calculations       : Yes
Used interface                              : Native Win32 interface for Win NT & 2000
Gap handling                                : Appended to previous track

Used output format              : User Defined Encoder
Selected bitrate                : 128 kBit/s
Quality                         : High
Add ID3 tag                     : No
Command line compressor         : C:\Program Files\FLAC\flac.exe
Additional command line options : -5 -V -T "ARTIST=%a" -T "TITLE=%t" -T "ALBUM=%g" -T "DATE=%y" -T "TRACKNUMBER=%n" -T "GENRE=%m" -T "COMMENT=Ripped By andygrakoff aka yetiisyou" %s

TOC of the extracted CD

     Track |   Start  |  Length  | Start sector | End sector
    ---------------------------------------------------------
        1  |  0:00.00 |  6:48.30 |         0    |    30629   
        2  |  6:48.30 |  4:01.25 |     30630    |    48729   
        3  | 10:49.55 |  6:50.12 |     48730    |    79491   
        4  | 17:39.67 |  3:47.00 |     79492    |    96516   
        5  | 21:26.67 |  7:38.00 |     96517    |   130866   
        6  | 29:04.67 |  3:35.50 |    130867    |   147041   
        7  | 32:40.42 |  4:48.38 |    147042    |   168679   

Track  1

     Filename F:\!Rips\Seal - Kiss From A Rose 1994 (WPCR-119)\01  – Kiss Form A Rose (Kicks From A Rhodes).wav

     Pre-gap length  0:00:02.00

     Peak level 100.0 %
     Track quality 99.9 %
     Test CRC 4B9C361B
     Copy CRC 4B9C361B
     Accurately ripped (confidence 1)  [3024A896]
     Copy OK

Track  2

     Filename F:\!Rips\Seal - Kiss From A Rose 1994 (WPCR-119)\02  – The Wind Cries Mary.wav

     Pre-gap length  0:00:04.33

     Peak level 70.2 %
     Track quality 100.0 %
     Test CRC EABB8D03
     Copy CRC EABB8D03
     Accurately ripped (confidence 1)  [0BB0DC06]
     Copy OK

Track  3

     Filename F:\!Rips\Seal - Kiss From A Rose 1994 (WPCR-119)\03  – Kiss From A Rose (Kicks From A Rhodes Instrumental).wav

     Pre-gap length  0:00:05.50

     Peak level 99.9 %
     Track quality 100.0 %
     Test CRC BA5D8979
     Copy CRC BA5D8979
     Accurately ripped (confidence 1)  [208815C7]
     Copy OK

Track  4

     Filename F:\!Rips\Seal - Kiss From A Rose 1994 (WPCR-119)\04  – Blues in 'E'.wav

     Pre-gap length  0:00:06.82

     Peak level 100.0 %
     Track quality 100.0 %
     Test CRC 5C2189DA
     Copy CRC 5C2189DA
     Accurately ripped (confidence 1)  [2B5AF956]
     Copy OK

Track  5

     Filename F:\!Rips\Seal - Kiss From A Rose 1994 (WPCR-119)\05  – I'm Alive (Son Of Bontempi).wav

     Pre-gap length  0:00:03.16

     Peak level 100.0 %
     Track quality 100.0 %
     Test CRC 018D7252
     Copy CRC 018D7252
     Accurately ripped (confidence 1)  [69FA292A]
     Copy OK

Track  6

     Filename F:\!Rips\Seal - Kiss From A Rose 1994 (WPCR-119)\06  – Crazy (Acoustic Version).wav

     Pre-gap length  0:00:02.33

     Peak level 99.9 %
     Track quality 100.0 %
     Test CRC 8BDBEC6F
     Copy CRC 8BDBEC6F
     Accurately ripped (confidence 1)  [7A8BC104]
     Copy OK

Track  7

     Filename F:\!Rips\Seal - Kiss From A Rose 1994 (WPCR-119)\07  – Kiss From A Rose.wav

     Pre-gap length  0:00:03.66

     Peak level 68.1 %
     Track quality 100.0 %
     Test CRC 8369830C
     Copy CRC 8369830C
     Accurately ripped (confidence 1)  [D7CEEA3E]
     Copy OK

All tracks accurately ripped

No errors occurred

End of status report

Код:

REM GENRE Pop
REM DATE 1994
REM DISCID 5208C907
REM COMMENT "ExactAudioCopy v0.99pb5"
PERFORMER "Seal"
TITLE "Kiss From A Rose (EP)"
FILE "01  – Kiss Form A Rose (Kicks From A Rhodes).wav" WAVE
  TRACK 01 AUDIO
    TITLE "Kiss Form A Rose (Kicks From A Rhodes)"
    PERFORMER "Seal"
    INDEX 01 00:00:00
  TRACK 02 AUDIO
    TITLE "The Wind Cries Mary"
    PERFORMER "Seal"
    INDEX 00 06:44:05
FILE "02  – The Wind Cries Mary.wav" WAVE
    INDEX 01 00:00:00
  TRACK 03 AUDIO
    TITLE "Kiss From A Rose (Kicks From A Rhodes Instrumental)"
    PERFORMER "Seal"
    INDEX 00 03:55:62
FILE "03  – Kiss From A Rose (Kicks From A Rhodes Instrumental).wav" WAVE
    INDEX 01 00:00:00
  TRACK 04 AUDIO
    TITLE "Blues in 'E'"
    PERFORMER "Seal"
    INDEX 00 06:43:25
FILE "04  – Blues in 'E'.wav" WAVE
    INDEX 01 00:00:00
  TRACK 05 AUDIO
    TITLE "I'm Alive (Son Of Bontempi)"
    PERFORMER "Seal"
    INDEX 00 03:43:63
FILE "05  – I'm Alive (Son Of Bontempi).wav" WAVE
    INDEX 01 00:00:00
  TRACK 06 AUDIO
    TITLE "Crazy (Acoustic Version)"
    PERFORMER "Seal"
    INDEX 00 07:35:50
FILE "06  – Crazy (Acoustic Version).wav" WAVE
    INDEX 01 00:00:00
  TRACK 07 AUDIO
    TITLE "Kiss From A Rose"
    PERFORMER "Seal"
    INDEX 00 03:32:00
FILE "07  – Kiss From A Rose.wav" WAVE
    INDEX 01 00:00:00

Этот торрент недоступен для скачивания без регистрации, однако доступен по публичной magnet-ссылке (источники с публичных трекеров). Перед использованием ссылки прочтите, пожалуйста Пользовательское соглашение, а также как можно дольше оставайтесь на раздаче! Для того, чтобы скачать сам торрент-файл (который видит больше источников), а также для того, чтобы поблагодарить релизера, вам необходимо зарегистрироваться. Если регистрироваться лень - вы можете также попробовать скачать релиз по нашим партнерским ссылкам ниже. Кроме того, зарегистрированным пользователям не показывается всплывающая реклама при скачивании.

[underverse.me].t90218.torrent
Трекер: Зарегистрирован   [ 18.10.2017 18:31 ]  

Статус: проверено (by Бишеп at 18.10.2017 18:31)
Поблагодарили: пока никто не поблагодарил...
Тип торрента: публичный - доступные источники с открытых трекеров: 
Размер: 252 MB (занимает 0,06 DVDR, для записи нужно 1 болванка DVDR/RW)
 
 
Похожие темы
Форум Тема Автор Торрент Отв. Посл. сооб.
Музыкальные DVD (Electronic) Jean Michel Jare - Aero (2004) [DVD-Audio, 5.1 DTS, 5.1 Dolby Digital (2.0-совместимый даунмикс)] 8ad_R060d
11 | 0

0 | 3401

36

19.03.2014 14:24

Зарубежная Pop Музыка (Electronic, Pop) Marian Hill - ACT ONE (The Complete Collection) (2017) [MP3, 320 kbps CBR] Darkferse
5 | 1

1 | 1522

7

31.05.2017 13:55

Зарубежная Pop Музыка (Electronic, House, Dance, Pop) Madonna - Bitch I'm Madonna (The Remixes) (2015) [MP3, 320 kbps] 90ytr90
3 | 0

0 | 938

2

08.11.2016 07:41

Зарубежная Pop Музыка (Electronic, Synth-pop) a-ha - Cast In Steel [Vinyl Rip] (2015) [MP3, 320 kbps] 90ytr90
3 | 1

0 | 1008

2

06.11.2016 12:26

Зарубежная Pop Музыка (Electronic, Pop, Dance) The Knocks - 55 (2016) [MP3, 320 kbps] 90ytr90
3 | 0

0 | 880

3

06.11.2016 10:41

Зарубежная Pop Музыка (Electronic Rock, Pop) Porcelain Black - Mannequin Factory (2015) [MP3, 320 kbps] 90ytr90
5 | 0

0 | 1445

11

11.03.2015 20:43

Зарубежная Pop Музыка (Electronic, Indie Pop) Sia - The Spotify Sessions [EP] (2017) [MP3, 320 kbps CBR] 90ytr90
11 | 0

0 | 856

6

08.04.2018 07:08

Зарубежная Pop Музыка (Electronic, House, Techno) Moby - Go-the very best of Moby (Japan) (2006) [MP3, 320 kbps CBR] 90ytr90
11 | 1

0 | 1050

9

08.04.2018 10:44

Зарубежная Pop Музыка (Electronic, Dance, Alternative, Pop) Tracey Thorn - Record (2018) [MP3, 320 kbps CBR] 90ytr90
10 | 5

0 | 726

5

08.04.2018 13:05

Зарубежная Pop Музыка (Electronic, Synthpop) a-ha - MTV Unplugged: Summer Solstice (2017) [MP3, 320 kbps CBR] 90ytr90
22 | 10

0 | 913

9

08.04.2018 14:22


Яндекс.Метрика powered by Sphinx


В Н И М А Н И Е
Сайт не распространяет и не хранит электронные версии произведений, а лишь бесплатно и без коммерческой выгоды (не требуя взамен платы,
SMS и т.д.) предоставляет доступ к создаваемому пользователями каталогу ссылок на торрент-файлы, которые содержат только списки хеш-сумм.
Убедительная просьба с жалобами обращаться напрямую к пользователю, разместившему торрент файл.

Вверх