Loading...
Error

Плохой лейтенант / The Bad Lieutenant: Port of Call New Orleans (Вернер Херцог) [2009 г., драма, криминальный, DVDRip]

Статистика раздачи
Размер:  2,18 GB   |    Зарегистрирован:  9 лет 8 месяцев   |    Скачан:  4 раза

Полного источника не было: 8 лет 3 месяца

Сидов:  0  |  0 KB/s  ]   Личеров:  0  |  0 KB/s  ]

* - сиды/пиры с внешних источников

   
 
Автор Сообщение

GUree Пол:Муж

20-Дек-2009 01:09

Плохой лейтенант / The Bad Lieutenant: Port of Call New Orleans


Год выпуска: 2009
Жанр: драма, криминальный
Страна: США
Режиссер: Вернер Херцог
В ролях: Николас Кейдж, Вэл Килмер, Ева Мендес, Файруза Балк, Дженнифер Кулидж, Брэд Дуриф, Майкл Шэннон, Шон Хэтоси, Дэнзел Уитакер, Ши Уигхэм, Иксзибит

Сюжет фильма: Грязный полицейский Терренс МакДонаг, крупно замешанный в торговле наркотиками, азартных играх, сексе и воровстве, расследует убийство. Параллельно он спасает заключенного во время урагана Катрина и затем пытается устроить ему нормальную жизнь.

  • Мировая премьера: 4 сентября 2009
  • Российская премьера: 26 ноября 2009, «Премиум Фильм»




Личная оценка: 9 - торкнуло

Качество видео: DVDRip

Продолжительность: 01:56:53
Видео: кодек: x264, формат: mkv, размер кадра: 720x576@1024x576, битрейт: 1981 kbps
Аудио #1: язык: русский, перевод: многоголосый закадровый, кодек: AC3 5.1, битрейт: 320 kbps
Аудио #2: язык: английский, перевод: оригинал, кодек: AC3 5.1, битрейт: 320 kbps
Субтитры #1: тип: вшитые отключаемые, язык: русский, формат: S_TEXT/UTF8
Субтитры #2: тип: вшитые отключаемые, язык: английский, формат: S_TEXT/UTF8

Семпл 1 на multi-up; Семпл 1 на dump
Семпл 2 на multi-up; Семпл 2 на dump

Релиз группы:






General
Complete name :The.Bad.Lieutenant_Port.of.Call.New.Orleans.DVDRip.AVC.mkv
Format : Matroska
File size : 2.18 GiB
Duration : 1h 56mn
Overall bit rate : 2 675 Kbps
Movie name : -=GUree=-
Encoded date : UTC 2009-12-20 00:20:23
Writing application : mkvmerge v2.9.9 ('Tutu') built on Nov 25 2009 21:13:32
Writing library : libebml v0.7.9 + libmatroska v0.8.1

Video
ID : 1
Format : AVC
Format/Info : Advanced Video Codec
Format profile : High@L4.1
Format settings, CABAC : Yes
Format settings, ReFrames : 8 frames
Muxing mode : Container profile=Unknown@4.1
Codec ID : V_MPEG4/ISO/AVC
Duration : 1h 56mn
Bit rate : 1 981 Kbps
Nominal bit rate : 2 033 Kbps
Width : 720 pixels
Height : 576 pixels
Display aspect ratio : 16:9
Frame rate : 25.000 fps
Standard : PAL
Resolution : 24 bits
Colorimetry : 4:2:0
Scan type : Progressive
Bits/(Pixel*Frame) : 0.191
Stream size : 1.62 GiB (74%)
Writing library : x264 core 79 r1342kMod e8501ef
Encoding settings : cabac=1 / ref=8 / deblock=1:-2:-1 / analyse=0x3:0x113 / me=tesa / subme=10 / psy=1 / psy_rd=1.0:0.4 / mixed_ref=1 / me_range=32 / chroma_me=1 / trellis=2 / 8x8dct=1 / cqm=0 / deadzone=21,11 / chroma_qp_offset=-4 / threads=6 / nr=0 / decimate=0 / mbaff=0 / constrained_intra=0 / bframes=9 / b_pyramid=0 / b_adapt=2 / b_bias=0 / direct=3 / wpredb=1 / wpredp=2 / keyint=250 / keyint_min=25 / scenecut=40 / rc_lookahead=60 / rc=2pass / mbtree=1 / bitrate=2033 / ratetol=1.0 / qcomp=0.60 / qpmin=10 / qpmax=51 / qpstep=4 / cplxblur=20.0 / qblur=0.5 / vbv_maxrate=50000 / vbv_bufsize=50000 / ip_ratio=1.40 / aq=1:1.00

Audio #1
ID : 2
Format : AC-3
Format/Info : Audio Coding 3
Codec ID : A_AC3
Duration : 1h 56mn
Bit rate mode : Constant
Bit rate : 320 Kbps
Channel(s) : 6 channels
Channel positions : Front: L C R, Surround: L R, LFE
Sampling rate : 48.0 KHz
Stream size : 268 MiB (12%)
Title : AC3 5.1 320Kb/s
Language : Russian

Audio #2
ID : 3
Format : AC-3
Format/Info : Audio Coding 3
Codec ID : A_AC3
Duration : 1h 56mn
Bit rate mode : Constant
Bit rate : 320 Kbps
Channel(s) : 6 channels
Channel positions : Front: L C R, Surround: L R, LFE
Sampling rate : 48.0 KHz
Stream size : 268 MiB (12%)
Title : AC3 5.1 320Kb/s
Language : English

Text #1
ID : 4
Format : UTF-8
Codec ID : S_TEXT/UTF8
Codec ID/Info : UTF-8 Plain Text
Language : Russian

Text #2
ID : 5
Format : UTF-8
Codec ID : S_TEXT/UTF8
Codec ID/Info : UTF-8 Plain Text
Language : English

Этот торрент недоступен для скачивания без регистрации, однако доступен по публичной magnet-ссылке (источники с публичных трекеров). Перед использованием ссылки прочтите, пожалуйста Пользовательское соглашение, а также как можно дольше оставайтесь на раздаче! Для того, чтобы скачать сам торрент-файл (который видит больше источников), а также для того, чтобы поблагодарить релизера, вам необходимо зарегистрироваться. Если регистрироваться лень - вы можете также попробовать скачать релиз по нашим партнерским ссылкам ниже. Кроме того, зарегистрированным пользователям не показывается всплывающая реклама при скачивании.

[underverse.su].t8033.torrent
Трекер: Зарегистрирован   [ 20.12.2009 01:09 ]  

Статус: проверено (by GUree at 20.12.2009 01:19)
Поблагодарили: 1 человек
Тип торрента: публичный - доступные источники с открытых трекеров: 
Размер: 2,18 GB (занимает 1/2 DVDR, для записи нужно 1 болванка DVDR/RW)
 
 


Последний раз редактировалось: GUree (02.02.2010 21:59), всего редактировалось 1 раз

niko65 

28-Дек-2009 19:43

GUree - еще не смотрел, спасибо за качество!
(Зачем скрины без анаморфа?)

05-Ноя-2011 14:45

Топик был перенесен из форума Зарубежное кино AVC в форум Архив


[cron robot]
 

Яндекс.Метрика powered by Sphinx


В Н И М А Н И Е
Сайт не распространяет и не хранит электронные версии произведений, а лишь бесплатно и без коммерческой выгоды (не требуя взамен платы,
SMS и т.д.) предоставляет доступ к создаваемому пользователями каталогу ссылок на торрент-файлы, которые содержат только списки хеш-сумм.
Убедительная просьба с жалобами обращаться напрямую к пользователю, разместившему торрент файл.

Вверх