Loading...
Error

(Folk, Rock) Trader Horne - Morning Way ...Plus (1970) [APE (Image+.CUE), lossless]

Статистика раздачи
Размер:  299 MB   |    Зарегистрирован:  2 года 8 месяцев   |    Скачан:  5 раз

Полного источника не было: 8 дней

Сидов:  0  |  0 KB/s  ]   Личеров:  0  |  0 KB/s  ]

* - сиды/пиры с внешних источников

   
 
Автор Сообщение

Darkferse Пол:Жен

30-Дек-2017 20:00

Trader Horne - Morning Way ...Plus

Жанр: Folk, Rock
Год выпуска: 1970
Источник: CD
Производитель: See For Miles Records Ltd.
Аудиокодек: APE
Тип рипа: Image+.CUE
Битрейт: lossless
Продолжительность: 00:52:33

Треклист:

1. Jenny May
2. Children Of Care
3. Three Rings For Eleven Kings
4. Growing Man
5. Down And Out Blues
6. The Mixed Up Kind
7. Better Than Today
8. In My Loneliness
9. Sheena
10. The Mutant
11. Morning Way
12. Velvet To Atone
13. Luke That Never Was
14. Here Comes The Rain - bonus track
15. Goodby Mercy Kelly - bonus track

Код:

Exact Audio Copy V0.99 prebeta 5 from 4. May 2009

Отчёт EAC об извлечении, выполненном 1. сентября 2009, 13:09

Trader Horne / Morning Way ...Plus

Дисковод: ASUS DRW-2014S1T Adapter: 3 ID: 0

Режим чтения : Достоверность
Использование точного потока : Да
Отключение кэша аудио : Да
Использование указателей C2 : Нет

Коррекция смещения при чтении : 6
Способность читать области Lead-in и Lead-out : Нет
Заполнение пропущенных сэмплов тишиной : Да
Удаление блоков с тишиной в начале и конце : Нет
При вычислениях CRC использовались нулевые сэмплы : Да
Интерфейс : Установленный внешний ASPI-интерфейс

Выходной формат : Внутренние WAV-операции
Формат сэмплов : 44.100 Гц; 16 бит; стерео

TOC извлечённого CD

Трек | Старт | Длительность | Начальный сектор | Конечный сектор
---------------------------------------------------------------------
1 | 0:00.32 | 2:27.00 | 32 | 11056
2 | 2:27.32 | 4:04.20 | 11057 | 29376
3 | 6:31.52 | 2:13.35 | 29377 | 39386
4 | 8:45.12 | 4:05.10 | 39387 | 57771
5 | 12:50.22 | 4:33.70 | 57772 | 78316
6 | 17:24.17 | 6:21.60 | 78317 | 106951
7 | 23:46.02 | 3:11.63 | 106952 | 121339
8 | 26:57.65 | 2:22.27 | 121340 | 132016
9 | 29:20.17 | 2:43.03 | 132017 | 144244
10 | 32:03.20 | 2:54.57 | 144245 | 157351
11 | 34:58.02 | 4:35.73 | 157352 | 178049
12 | 39:34.00 | 2:26.57 | 178050 | 189056
13 | 42:00.57 | 4:47.03 | 189057 | 210584
14 | 46:47.60 | 2:31.27 | 210585 | 221936
15 | 49:19.12 | 3:14.38 | 221937 | 236524

Характеристики диапазона извлечения и сообщения об ошибках

Выбранный диапазон

Имя файла C:\Documents and Settings\Administrator\Desktop\uploads\Trader Horne - 1970 - Morning Way ...Plus\Trader Horne - Morning Way ...Plus.wav

Пиковый уровень 100.0 %
Качество диапазона 100.0 %
CRC копии A92DDECB
Копирование... OK

Ошибок не произошло

AccurateRip: сводка

Трек 1 нет в базе данных
Трек 2 нет в базе данных
Трек 3 нет в базе данных
Трек 4 нет в базе данных
Трек 5 нет в базе данных
Трек 6 нет в базе данных
Трек 7 нет в базе данных
Трек 8 нет в базе данных
Трек 9 нет в базе данных
Трек 10 точность не определена (достоверность 1) [0E9EA50F], AccurateRip вернул [A576DBDF]
Трек 11 точность не определена (достоверность 1) [50E7E468], AccurateRip вернул [7FD89392]
Трек 12 точность не определена (достоверность 1) [4D49BBA6], AccurateRip вернул [FA5F23C5]
Трек 13 точность не определена (достоверность 1) [D3AE8584], AccurateRip вернул [7AE4CB4E]
Трек 14 точность не определена (достоверность 1) [214108FE], AccurateRip вернул [D9450787]
Трек 15 точность не определена (достоверность 1) [ABE29AE9], AccurateRip вернул [C13D5763]

6 трек(и) не удалось проверить на точность
9 трек(и) не содержатся в базе AccurateRip

Ни один трек не прошёл проверки на точность
В вашей базе может быть иной вариант штамповки диска

Конец отчёта

Код:

REM GENRE Folk
REM DATE 1970
REM DISCID CE0C510F
REM COMMENT "ExactAudioCopy v0.99pb5"
PERFORMER "Trader Horne"
TITLE "Morning Way ...Plus"
FILE "Trader Horne - Morning Way ...Plus.wav" WAVE
  TRACK 01 AUDIO
    TITLE "Jenny May"
    PERFORMER "Trader Horne"
    INDEX 00 00:00:00
    INDEX 01 00:00:32
  TRACK 02 AUDIO
    TITLE "Children Of Oare"
    PERFORMER "Trader Horne"
    INDEX 01 02:27:32
  TRACK 03 AUDIO
    TITLE "Three Rings For Elven Kings"
    PERFORMER "Trader Horne"
    INDEX 01 06:31:52
  TRACK 04 AUDIO
    TITLE "Growning Man"
    PERFORMER "Trader Horne"
    INDEX 01 08:45:12
  TRACK 05 AUDIO
    TITLE "Down And Out Blues"
    PERFORMER "Trader Horne"
    INDEX 01 12:50:22
  TRACK 06 AUDIO
    TITLE "The Mixed Up King"
    PERFORMER "Trader Horne"
    INDEX 01 17:24:17
  TRACK 07 AUDIO
    TITLE "Better Than Today"
    PERFORMER "Trader Horne"
    INDEX 01 23:46:02
  TRACK 08 AUDIO
    TITLE "In My Loneliness"
    PERFORMER "Trader Horne"
    INDEX 01 26:57:65
  TRACK 09 AUDIO
    TITLE "Sheena"
    PERFORMER "Trader Horne"
    INDEX 01 29:20:17
  TRACK 10 AUDIO
    TITLE "The Mutant"
    PERFORMER "Trader Horne"
    INDEX 01 32:03:20
  TRACK 11 AUDIO
    TITLE "Morning Way"
    PERFORMER "Trader Horne"
    INDEX 01 34:58:02
  TRACK 12 AUDIO
    TITLE "Velvet To Atone"
    PERFORMER "Trader Horne"
    INDEX 01 39:34:00
  TRACK 13 AUDIO
    TITLE "Luke That Never Was"
    PERFORMER "Trader Horne"
    INDEX 01 42:00:57
  TRACK 14 AUDIO
    TITLE "Here Comes The Rain"
    PERFORMER "Trader Horne"
    INDEX 01 46:47:60
  TRACK 15 AUDIO
    TITLE "Goodby Mercy Kelly"
    PERFORMER "Trader Horne"
    INDEX 01 49:19:12

Этот торрент недоступен для скачивания без регистрации, однако доступен по публичной magnet-ссылке (источники с публичных трекеров). Перед использованием ссылки прочтите, пожалуйста Пользовательское соглашение, а также как можно дольше оставайтесь на раздаче! Для того, чтобы скачать сам торрент-файл (который видит больше источников), а также для того, чтобы поблагодарить релизера, вам необходимо зарегистрироваться. Если регистрироваться лень - вы можете также попробовать скачать релиз по нашим партнерским ссылкам ниже. Кроме того, зарегистрированным пользователям не показывается всплывающая реклама при скачивании.

[underverse.me].t93993.torrent
Трекер: Зарегистрирован   [ 30.12.2017 20:00 ]  

Статус: проверено (by Darkferse at 30.12.2017 20:01)
Поблагодарили: 1 человек
Тип торрента: публичный - доступные источники с открытых трекеров: 
Размер: 299 MB (занимает 0,07 DVDR, для записи нужно 1 болванка DVDR/RW)
 
 
Похожие темы
Форум Тема Автор Торрент Отв. Посл. сооб.
Зарубежная Pop Музыка (Folk, Rock) Santiano - Haithabu - Im Auge des Sturms (2018) [MP3, 320 kbps CBR] 90ytr90
0 | 0

0 | 820

5

28.10.2018 06:30

Зарубежный Hard, Progressive, Soft, Melodic, AOR, Folk, Classic Rock (Folk, Rock) Simon And Garfunkel - 20 Greatest Hits (1991) [MP3, 320 kbps CBR] 90ytr90
0 | 0

0 | 635

4

03.12.2018 14:04

Отечественный Hard, Progressive, Melodic, AOR (Lossless) (Folk, Rock) Борис Гребенщиков - Время N (2018) [FLAC (tracks), lossless] WEB romeoexpert
15 | 1

0 | 1313

22

27.06.2018 17:30

Архив (рок) (Folk, Rock, Instrumental) Бряц-Band - 2 альбома (2005-2008) [MP3, 320 kbps CBR] nickolai.
1 | 0

2 | 1564

15

20.03.2019 22:32


Яндекс.Метрика powered by Sphinx


В Н И М А Н И Е
Сайт не распространяет и не хранит электронные версии произведений, а лишь бесплатно и без коммерческой выгоды (не требуя взамен платы,
SMS и т.д.) предоставляет доступ к создаваемому пользователями каталогу ссылок на торрент-файлы, которые содержат только списки хеш-сумм.
Убедительная просьба с жалобами обращаться напрямую к пользователю, разместившему торрент файл.

Вверх