Loading...
Error

(Country Pop) Taylor Swift - reputation (2017) [FLAC (Tracks+.CUE), lossless]

Статистика раздачи
Размер:  363 MB   |    Зарегистрирован:  2 года 1 месяц   |    Скачан:  8 раз

Полного источника не было: 4 месяца 3 дня

Сидов:  0  |  0 KB/s  ]   Личеров:  0  |  0 KB/s  ]

* - сиды/пиры с внешних источников

   
 
Автор Сообщение

Darkferse Пол:Жен

30-Дек-2017 20:26

Taylor Swift - reputation

Жанр: Country Pop
Страна: USA
Год выпуска: 2017
Источник: CD
Производитель: Big Machine Label Group - BMRCO0600A
Аудиокодек: FLAC
Тип рипа: Tracks+.CUE
Битрейт: lossless
Продолжительность: 00:55:46

Треклист:

01. ...Ready For It? (03:28)
02. End Game (Feat. Ed Sheeran & Future) (04:04)
03. I Did Something Bad (03:58)
04. Don’t Blame Me (03:56)
05. Delicate (03:52)
06. Look What You Made Me Do (03:31)
07. So It Goes... (03:47)
08. Gorgeous (03:29)
09. Getaway Car (03:53)
10. King Of My Heart (03:34)
11. Dancing With Our Hands Tied (03:31)
12. Dress (03:50)
13. This Is Why We Can’t Have Nice Things (03:27)
14. Call It What You Want (03:23)
15. New Year’s Day (03:55)

Код:

X Lossless Decoder version 20170729 (150.3)

XLD extraction logfile from 2017-11-10 08:18:53 -0500

Taylor Swift / Reputation

Used drive : HL-DT-ST DVDRAM GP65NS60 (revision PF00)
Media type : Pressed CD

Ripper mode             : XLD Secure Ripper
Disable audio cache     : OK for the drive with a cache less than 1375KiB
Make use of C2 pointers : NO
Read offset correction  : 6
Max retry count         : 20
Gap status              : Analyzed, Appended (except HTOA)

TOC of the extracted CD
     Track |   Start  |  Length  | Start sector | End sector
    ---------------------------------------------------------
        1  | 00:00:00 | 03:28:14 |         0    |    15613
        2  | 03:28:14 | 04:04:62 |     15614    |    33975
        3  | 07:33:01 | 03:58:19 |     33976    |    51844
        4  | 11:31:20 | 03:56:31 |     51845    |    69575
        5  | 15:27:51 | 03:52:19 |     69576    |    86994
        6  | 19:19:70 | 03:31:64 |     86995    |   102883
        7  | 22:51:59 | 03:47:68 |    102884    |   119976
        8  | 26:39:52 | 03:29:51 |    119977    |   135702
        9  | 30:09:28 | 03:53:47 |    135703    |   153224
       10  | 34:03:00 | 03:34:24 |    153225    |   169298
       11  | 37:37:24 | 03:31:38 |    169299    |   185161
       12  | 41:08:62 | 03:50:28 |    185162    |   202439
       13  | 44:59:15 | 03:27:10 |    202440    |   217974
       14  | 48:26:25 | 03:23:38 |    217975    |   233237
       15  | 51:49:63 | 03:55:35 |    233238    |   250897

AccurateRip Summary
    Disc not found in AccurateRip DB.

All Tracks
    Album gain               : -8.42 dB
    Peak                     : 0.998840
    Statistics
        Read error                           : 0
        Jitter error (maybe fixed)           : 0
        Retry sector count                   : 0
        Damaged sector count                 : 0

Track 01
    Filename : /Rips/Compilations - Reputation [01] (2017) [FLAC]/01 ...Ready For It?.flac
    Pre-gap length : 00:02:00

    Track gain               : -8.10 dB
    Peak                     : 0.998840
    CRC32 hash (test run)    : 69A9FC45
    CRC32 hash               : 69A9FC45
    CRC32 hash (skip zero)   : 5E4C3D97
    AccurateRip v1 signature : 50CC3900
    AccurateRip v2 signature : BE125ED3
        ->Track not present in AccurateRip database.
    Statistics
        Read error                           : 0
        Jitter error (maybe fixed)           : 0
        Retry sector count                   : 0
        Damaged sector count                 : 0

Track 02
    Filename : /Rips/Compilations - Reputation [01] (2017) [FLAC]/02 End Game (feat. Ed Sheeran & Future).flac

    Track gain               : -7.60 dB
    Peak                     : 0.998840
    CRC32 hash (test run)    : 286B8834
    CRC32 hash               : 286B8834
    CRC32 hash (skip zero)   : 51AF8DF7
    AccurateRip v1 signature : 3A0E1A1E
    AccurateRip v2 signature : E273D859
        ->Track not present in AccurateRip database.
    Statistics
        Read error                           : 0
        Jitter error (maybe fixed)           : 0
        Retry sector count                   : 0
        Damaged sector count                 : 0

Track 03
    Filename : /Rips/Compilations - Reputation [01] (2017) [FLAC]/03 I Did Something Bad.flac

    Track gain               : -8.93 dB
    Peak                     : 0.998840
    CRC32 hash (test run)    : E8CFE835
    CRC32 hash               : E8CFE835
    CRC32 hash (skip zero)   : F85D9DAA
    AccurateRip v1 signature : BB8B6CB9
    AccurateRip v2 signature : 84498471
        ->Track not present in AccurateRip database.
    Statistics
        Read error                           : 0
        Jitter error (maybe fixed)           : 0
        Retry sector count                   : 0
        Damaged sector count                 : 0

Track 04
    Filename : /Rips/Compilations - Reputation [01] (2017) [FLAC]/04 Don't Blame Me.flac

    Track gain               : -9.64 dB
    Peak                     : 0.998840
    CRC32 hash (test run)    : 544807DE
    CRC32 hash               : 544807DE
    CRC32 hash (skip zero)   : 8AB1DBA1
    AccurateRip v1 signature : 2ED25C1D
    AccurateRip v2 signature : A45FDDE3
        ->Track not present in AccurateRip database.
    Statistics
        Read error                           : 0
        Jitter error (maybe fixed)           : 0
        Retry sector count                   : 0
        Damaged sector count                 : 0

Track 05
    Filename : /Rips/Compilations - Reputation [01] (2017) [FLAC]/05 Delicate.flac

    Track gain               : -6.11 dB
    Peak                     : 0.998840
    CRC32 hash (test run)    : 4CFE6890
    CRC32 hash               : 4CFE6890
    CRC32 hash (skip zero)   : 0EA25FF3
    AccurateRip v1 signature : FC5D9AC9
    AccurateRip v2 signature : 9AC924E8
        ->Track not present in AccurateRip database.
    Statistics
        Read error                           : 0
        Jitter error (maybe fixed)           : 0
        Retry sector count                   : 0
        Damaged sector count                 : 0

Track 06
    Filename : /Rips/Compilations - Reputation [01] (2017) [FLAC]/06 Look What You Made Me Do.flac

    Track gain               : -9.34 dB
    Peak                     : 0.960175
    CRC32 hash (test run)    : A2FD6935
    CRC32 hash               : A2FD6935
    CRC32 hash (skip zero)   : C90CC1A5
    AccurateRip v1 signature : EA8FB232
    AccurateRip v2 signature : 05858692
        ->Track not present in AccurateRip database.
    Statistics
        Read error                           : 0
        Jitter error (maybe fixed)           : 0
        Retry sector count                   : 0
        Damaged sector count                 : 0

Track 07
    Filename : /Rips/Compilations - Reputation [01] (2017) [FLAC]/07 So It Goes....flac

    Track gain               : -7.85 dB
    Peak                     : 0.998840
    CRC32 hash (test run)    : F1AA5349
    CRC32 hash               : F1AA5349
    CRC32 hash (skip zero)   : 26339464
    AccurateRip v1 signature : 514C40B7
    AccurateRip v2 signature : 4B4CB876
        ->Track not present in AccurateRip database.
    Statistics
        Read error                           : 0
        Jitter error (maybe fixed)           : 0
        Retry sector count                   : 0
        Damaged sector count                 : 0

Track 08
    Filename : /Rips/Compilations - Reputation [01] (2017) [FLAC]/08 Gorgeous.flac

    Track gain               : -7.21 dB
    Peak                     : 0.998840
    CRC32 hash (test run)    : C7A2D9DB
    CRC32 hash               : C7A2D9DB
    CRC32 hash (skip zero)   : 521F97AD
    AccurateRip v1 signature : B9D6BD95
    AccurateRip v2 signature : 1418EC4F
        ->Track not present in AccurateRip database.
    Statistics
        Read error                           : 0
        Jitter error (maybe fixed)           : 0
        Retry sector count                   : 0
        Damaged sector count                 : 0

Track 09
    Filename : /Rips/Compilations - Reputation [01] (2017) [FLAC]/09 Getaway Car.flac

    Track gain               : -8.56 dB
    Peak                     : 0.998840
    CRC32 hash (test run)    : 21794C4B
    CRC32 hash               : 21794C4B
    CRC32 hash (skip zero)   : DC8205AF
    AccurateRip v1 signature : 6B8C78D7
    AccurateRip v2 signature : 6E84C296
        ->Track not present in AccurateRip database.
    Statistics
        Read error                           : 0
        Jitter error (maybe fixed)           : 0
        Retry sector count                   : 0
        Damaged sector count                 : 0

Track 10
    Filename : /Rips/Compilations - Reputation [01] (2017) [FLAC]/10 King Of My Heart.flac

    Track gain               : -7.16 dB
    Peak                     : 0.998840
    CRC32 hash (test run)    : B8015CAC
    CRC32 hash               : B8015CAC
    CRC32 hash (skip zero)   : 30B9E299
    AccurateRip v1 signature : 6D0B2F22
    AccurateRip v2 signature : B8629D1B
        ->Track not present in AccurateRip database.
    Statistics
        Read error                           : 0
        Jitter error (maybe fixed)           : 0
        Retry sector count                   : 0
        Damaged sector count                 : 0

Track 11
    Filename : /Rips/Compilations - Reputation [01] (2017) [FLAC]/11 Dancing With Our Hands Tied.flac

    Track gain               : -8.59 dB
    Peak                     : 0.998840
    CRC32 hash (test run)    : F22971DF
    CRC32 hash               : F22971DF
    CRC32 hash (skip zero)   : 07E43E42
    AccurateRip v1 signature : A764DA61
    AccurateRip v2 signature : 30F2289C
        ->Track not present in AccurateRip database.
    Statistics
        Read error                           : 0
        Jitter error (maybe fixed)           : 0
        Retry sector count                   : 0
        Damaged sector count                 : 0

Track 12
    Filename : /Rips/Compilations - Reputation [01] (2017) [FLAC]/12 Dress.flac

    Track gain               : -6.45 dB
    Peak                     : 0.998840
    CRC32 hash (test run)    : F4C42B9A
    CRC32 hash               : F4C42B9A
    CRC32 hash (skip zero)   : E5C643BB
    AccurateRip v1 signature : 4537AB55
    AccurateRip v2 signature : 8BC02C29
        ->Track not present in AccurateRip database.
    Statistics
        Read error                           : 0
        Jitter error (maybe fixed)           : 0
        Retry sector count                   : 0
        Damaged sector count                 : 0

Track 13
    Filename : /Rips/Compilations - Reputation [01] (2017) [FLAC]/13 This Is Why We Can't Have Nice Things.flac

    Track gain               : -9.08 dB
    Peak                     : 0.998840
    CRC32 hash (test run)    : 99A056BA
    CRC32 hash               : 99A056BA
    CRC32 hash (skip zero)   : 3B8701ED
    AccurateRip v1 signature : EAFA22E4
    AccurateRip v2 signature : 9337136E
        ->Track not present in AccurateRip database.
    Statistics
        Read error                           : 0
        Jitter error (maybe fixed)           : 0
        Retry sector count                   : 0
        Damaged sector count                 : 0

Track 14
    Filename : /Rips/Compilations - Reputation [01] (2017) [FLAC]/14 Call It What You Want.flac

    Track gain               : -5.96 dB
    Peak                     : 0.998840
    CRC32 hash (test run)    : 602E5401
    CRC32 hash               : 602E5401
    CRC32 hash (skip zero)   : 13035D62
    AccurateRip v1 signature : 50755B3F
    AccurateRip v2 signature : AE9286E7
        ->Track not present in AccurateRip database.
    Statistics
        Read error                           : 0
        Jitter error (maybe fixed)           : 0
        Retry sector count                   : 0
        Damaged sector count                 : 0

Track 15
    Filename : /Rips/Compilations - Reputation [01] (2017) [FLAC]/15 New Year's Day.flac

    Track gain               : -7.11 dB
    Peak                     : 0.946716
    CRC32 hash (test run)    : 37D1BF6F
    CRC32 hash               : 37D1BF6F
    CRC32 hash (skip zero)   : 95B796E2
    AccurateRip v1 signature : FF4474F6
    AccurateRip v2 signature : 599D7DA5
        ->Track not present in AccurateRip database.
    Statistics
        Read error                           : 0
        Jitter error (maybe fixed)           : 0
        Retry sector count                   : 0
        Damaged sector count                 : 0

No errors occurred

End of status report

-----BEGIN XLD SIGNATURE-----
uDJ6FH9GgfEOZvZU0oP6tduG1QZ2gE7cR0WrJndApVc4Bp7Djn4.uLKYZkW7M1LJchHWxgollr2uiaFxrvmiCY8roHnN5Gsx9sCsJl8
-----END XLD SIGNATURE-----

Код:

TITLE "Reputation"
PERFORMER "Taylor Swift"
CATALOG 0843930033102
REM GENRE "Pop"
REM DATE "2017"
REM DISCNUMBER 1
REM TOTALDISCS 1
REM DISCID B00D110F
REM REPLAYGAIN_ALBUM_GAIN -8.42 dB
REM REPLAYGAIN_ALBUM_PEAK 0.998840
REM COMPILATION TRUE
FILE "01 ...Ready For It?.flac" WAVE
  TRACK 01 AUDIO
    TITLE "...Ready For It?"
    SONGWRITER "Taylor Swift"
    ISRC USCJY1750003
    REM REPLAYGAIN_TRACK_GAIN -8.10 dB
    REM REPLAYGAIN_TRACK_PEAK 0.998840
    INDEX 01 00:00:00
FILE "02 End Game (feat. Ed Sheeran & Future).flac" WAVE
  TRACK 02 AUDIO
    TITLE "End Game (feat. Ed Sheeran & Future)"
    SONGWRITER "Nayvadius Wilburn/Taylor Swift/Max Martin"
    ISRC USCJY1750004
    REM REPLAYGAIN_TRACK_GAIN -7.60 dB
    REM REPLAYGAIN_TRACK_PEAK 0.998840
    INDEX 01 00:00:00
FILE "03 I Did Something Bad.flac" WAVE
  TRACK 03 AUDIO
    TITLE "I Did Something Bad"
    SONGWRITER "Shellback/Taylor Swift"
    ISRC USCJY1750005
    REM REPLAYGAIN_TRACK_GAIN -8.93 dB
    REM REPLAYGAIN_TRACK_PEAK 0.998840
    INDEX 01 00:00:00
FILE "04 Don't Blame Me.flac" WAVE
  TRACK 04 AUDIO
    TITLE "Don't Blame Me"
    SONGWRITER "Taylor Swift/Max Martin"
    ISRC USCJY1750006
    REM REPLAYGAIN_TRACK_GAIN -9.64 dB
    REM REPLAYGAIN_TRACK_PEAK 0.998840
    INDEX 01 00:00:00
FILE "05 Delicate.flac" WAVE
  TRACK 05 AUDIO
    TITLE "Delicate"
    SONGWRITER "Taylor Swift"
    ISRC USCJY1750007
    REM REPLAYGAIN_TRACK_GAIN -6.11 dB
    REM REPLAYGAIN_TRACK_PEAK 0.998840
    INDEX 01 00:00:00
FILE "06 Look What You Made Me Do.flac" WAVE
  TRACK 06 AUDIO
    TITLE "Look What You Made Me Do"
    SONGWRITER "Richard Fairbrass/Jack Antonoff/Rob Manzoli/Fred Fairbrass"
    ISRC USCJY1750000
    REM REPLAYGAIN_TRACK_GAIN -9.34 dB
    REM REPLAYGAIN_TRACK_PEAK 0.960175
    INDEX 01 00:00:00
FILE "07 So It Goes....flac" WAVE
  TRACK 07 AUDIO
    TITLE "So It Goes..."
    SONGWRITER "Oscar Görres"
    ISRC USCJY1750008
    REM REPLAYGAIN_TRACK_GAIN -7.85 dB
    REM REPLAYGAIN_TRACK_PEAK 0.998840
    INDEX 01 00:00:00
FILE "08 Gorgeous.flac" WAVE
  TRACK 08 AUDIO
    TITLE "Gorgeous"
    SONGWRITER "Shellback/Taylor Swift"
    ISRC USCJY1750009
    REM REPLAYGAIN_TRACK_GAIN -7.21 dB
    REM REPLAYGAIN_TRACK_PEAK 0.998840
    INDEX 01 00:00:00
FILE "09 Getaway Car.flac" WAVE
  TRACK 09 AUDIO
    TITLE "Getaway Car"
    SONGWRITER "Jack Antonoff"
    ISRC USCJY1750010
    REM REPLAYGAIN_TRACK_GAIN -8.56 dB
    REM REPLAYGAIN_TRACK_PEAK 0.998840
    INDEX 01 00:00:00
FILE "10 King Of My Heart.flac" WAVE
  TRACK 10 AUDIO
    TITLE "King Of My Heart"
    SONGWRITER "Shellback"
    ISRC USCJY1750011
    REM REPLAYGAIN_TRACK_GAIN -7.16 dB
    REM REPLAYGAIN_TRACK_PEAK 0.998840
    INDEX 01 00:00:00
FILE "11 Dancing With Our Hands Tied.flac" WAVE
  TRACK 11 AUDIO
    TITLE "Dancing With Our Hands Tied"
    SONGWRITER "Shellback/Taylor Swift/Max Martin"
    ISRC USCJY1750012
    REM REPLAYGAIN_TRACK_GAIN -8.59 dB
    REM REPLAYGAIN_TRACK_PEAK 0.998840
    INDEX 01 00:00:00
FILE "12 Dress.flac" WAVE
  TRACK 12 AUDIO
    TITLE "Dress"
    ISRC USCJY1750013
    REM REPLAYGAIN_TRACK_GAIN -6.45 dB
    REM REPLAYGAIN_TRACK_PEAK 0.998840
    INDEX 01 00:00:00
FILE "13 This Is Why We Can't Have Nice Things.flac" WAVE
  TRACK 13 AUDIO
    TITLE "This Is Why We Can't Have Nice Things"
    SONGWRITER "Jack Antonoff/Taylor Swift"
    ISRC USCJY1750014
    REM REPLAYGAIN_TRACK_GAIN -9.08 dB
    REM REPLAYGAIN_TRACK_PEAK 0.998840
    INDEX 01 00:00:00
FILE "14 Call It What You Want.flac" WAVE
  TRACK 14 AUDIO
    TITLE "Call It What You Want"
    SONGWRITER "Jack Antonoff"
    ISRC USCJY1750015
    REM REPLAYGAIN_TRACK_GAIN -5.96 dB
    REM REPLAYGAIN_TRACK_PEAK 0.998840
    INDEX 01 00:00:00
FILE "15 New Year's Day.flac" WAVE
  TRACK 15 AUDIO
    TITLE "New Year's Day"
    SONGWRITER "Jack Antonoff"
    ISRC USCJY1750016
    REM REPLAYGAIN_TRACK_GAIN -7.11 dB
    REM REPLAYGAIN_TRACK_PEAK 0.946716
    INDEX 01 00:00:00

Этот торрент недоступен для скачивания без регистрации, однако доступен по публичной magnet-ссылке (источники с публичных трекеров). Перед использованием ссылки прочтите, пожалуйста Пользовательское соглашение, а также как можно дольше оставайтесь на раздаче! Для того, чтобы скачать сам торрент-файл (который видит больше источников), а также для того, чтобы поблагодарить релизера, вам необходимо зарегистрироваться. Если регистрироваться лень - вы можете также попробовать скачать релиз по нашим партнерским ссылкам ниже. Кроме того, зарегистрированным пользователям не показывается всплывающая реклама при скачивании.

[underverse.me].t93995.torrent
Трекер: Зарегистрирован   [ 30.12.2017 20:26 ]  

Статус: проверено (by Darkferse at 30.12.2017 20:27)
Поблагодарили: 1 человек
Тип торрента: публичный - доступные источники с открытых трекеров: 
Размер: 363 MB (занимает 0,08 DVDR, для записи нужно 1 болванка DVDR/RW)
 
 
Похожие темы
Форум Тема Автор Торрент Отв. Посл. сооб.
Зарубежная музыка других жанров (Country Pop) Taylor Swift - Collection (2006-2012) [MP3, 320 kbps] garry
0 | 0

2 | 3232

7

12.11.2012 00:07


Яндекс.Метрика powered by Sphinx


В Н И М А Н И Е
Сайт не распространяет и не хранит электронные версии произведений, а лишь бесплатно и без коммерческой выгоды (не требуя взамен платы,
SMS и т.д.) предоставляет доступ к создаваемому пользователями каталогу ссылок на торрент-файлы, которые содержат только списки хеш-сумм.
Убедительная просьба с жалобами обращаться напрямую к пользователю, разместившему торрент файл.

Вверх