Loading...
Error

(Classical) Handel, Vivaldi, Kapsberger - Goes Wild (Christina Pluhar, L'Arpeggiata; Scheen, Sabadus, Trovesi) (2017) [FLAC (Tracks+.CUE), lossless]

Статистика раздачи
Размер:  365 MB   |    Зарегистрирован:  3 года 4 месяца   |    Скачан:  7 раз

Полного источника не было: 3 месяца 6 дней

Сидов:  0  |  0 KB/s  ]   Личеров:  0  |  0 KB/s  ]

* - сиды/пиры с внешних источников

   
 
Автор Сообщение

Darkferse Пол:Жен

31-Дек-2017 07:13

Handel, Vivaldi, Kapsberger - Goes Wild

Жанр: Classical
Год выпуска: 2017
Источник: CD
Производитель: Warner Classics - 9029581169
Аудиокодек: FLAC
Тип рипа: Tracks+.CUE
Битрейт: lossless
Продолжительность: 01:15:30

Треклист:

Georg Friedrich Händel (1685 - 1759)
01. Sinfonia (From Alcina HWV 34) (05:01)
02. Venti, turbini (Aria di Rinaldo, from Rinaldo HWV 7) (05:41)
03. O sleep, why dost thou leave me (Aria di Semele, from Semele HWV 58) (03:08)
Antonio Vivaldi (1678 - 1741)
04. Allegro (from Concerto in G minor, RV 157) (04:14)
Georg Friedrich Händel (1685 - 1759)
05. Cara sposa (Aria di Rinaldo, from Rinaldo HWV 7) (09:30)
06. Where'er you walk (Aria di Semele, from Semele HWV 58) (03:37)
07. Sinfonia (The Arrival of the Queen of Sheba, from Solomon HWV 67) (04:10)
08. Pena tiranna (Aria di Dardano, from Amadigi di Gaula HWV 11) (06:36)
09. Piangero la sorte mia (Aria di Cleopatra, from Giulio Cesare in Egitto HWV 17) (05:37)
Johann Hieronymus Kapsberger (1580 - 1651)
10. Canario (Improvisations based on Girolamo Kapsberger) (04:54)
Georg Friedrich Händel (1685 - 1759)
11. Verdi prati (Aria di Ruggiero, from Alcina HWV 34) (03:45)
12. Tu del Ciel ministro eletto (Aria di Bellezza, from Il trionfo del Tempo e del Disinganno HWV 46a) (03:48)
13. Mi lusinga il dolce affetto (Aria di Ruggiero, from Alcina HWV 34) (06:38)
14. Lascia ch'io pianga (Aria di Almirena, from Rinaldo HWV 7) (03:49)
15. Ombra mai fu (Aria di Serse, from Serse HWV 40) (05:02)

Код:

Exact Audio Copy V1.3 from 2. September 2016

EAC extraction logfile from 25. December 2017, 13:33

Christina Pluhar / Händel Goes Wild

Used drive  : MITSUMI CR-48X9TE   Adapter: 1  ID: 0

Read mode               : Secure
Utilize accurate stream : Yes
Defeat audio cache      : Yes
Make use of C2 pointers : No

Read offset correction                      : 733
Overread into Lead-In and Lead-Out          : No
Fill up missing offset samples with silence : Yes
Delete leading and trailing silent blocks   : No
Null samples used in CRC calculations       : Yes
Used interface                              : Native Win32 interface for Win NT & 2000
Gap handling                                : Appended to previous track

Used output format              : User Defined Encoder
Selected bitrate                : 1024 kBit/s
Quality                         : High
Add ID3 tag                     : No
Command line compressor         : C:\Program Files (x86)\Exact Audio Copy\Flac\flac.exe
Additional command line options : -8 -e -p -V -T "ARTIST=%artist%" -T "TITLE=%title%" -T "ALBUM=%albumtitle%" -T "DATE=%year%" -T "TRACKNUMBER=%tracknr%" -T "GENRE=%genre%" -T "PERFORMER=%albuminterpret%" -T "COMPOSER=%composer%" %haslyrics%--tag-from-file=LYRICS="%lyricsfile%"%haslyrics% -T "ALBUMARTIST=%albumartist%" -T "DISCNUMBER=%cdnumber%" -T "TOTALDISCS=%totalcds%" -T "TOTALTRACKS=%numtracks%" -T "COMMENT=%comment%" %source% -o %dest%

TOC of the extracted CD

     Track |   Start  |  Length  | Start sector | End sector
    ---------------------------------------------------------
        1  |  0:00.00 |  5:01.03 |         0    |    22577
        2  |  5:01.03 |  5:40.61 |     22578    |    48138
        3  | 10:41.64 |  3:07.56 |     48139    |    62219
        4  | 13:49.45 |  4:14.18 |     62220    |    81287
        5  | 18:03.63 |  9:30.10 |     81288    |   124047
        6  | 27:33.73 |  3:37.29 |    124048    |   140351
        7  | 31:11.27 |  4:09.42 |    140352    |   159068
        8  | 35:20.69 |  6:36.15 |    159069    |   188783
        9  | 41:57.09 |  5:37.23 |    188784    |   214081
       10  | 47:34.32 |  4:54.34 |    214082    |   236165
       11  | 52:28.66 |  3:45.01 |    236166    |   253041
       12  | 56:13.67 |  3:47.56 |    253042    |   270122
       13  | 60:01.48 |  6:38.24 |    270123    |   299996
       14  | 66:39.72 |  3:48.47 |    299997    |   317143
       15  | 70:28.44 |  5:02.28 |    317144    |   339821

Track  1

     Filename C:\rip\Christina Pluhar, L' Arpeggiata - Händel Goes Wild (2017) {Erato 0190295811709} [FLAC-CD]\01 - Sinfonia (From Alcina HWV 34).wav

     Pre-gap length  0:00:02.00

     Peak level 99.2 %
     Extraction speed 0.8 X
     Track quality 99.9 %
     Test CRC 4047EAD4
     Copy CRC 4047EAD4
     Accurately ripped (confidence 1)  [0CE04655]  (AR v2)
     Copy OK

Track  2

     Filename C:\rip\Christina Pluhar, L' Arpeggiata - Händel Goes Wild (2017) {Erato 0190295811709} [FLAC-CD]\02 - Venti, turbini (Aria di Rinaldo, from Rinaldo HWV 7).wav

     Pre-gap length  0:00:03.72

     Peak level 99.8 %
     Extraction speed 1.2 X
     Track quality 100.0 %
     Test CRC 1B9EE832
     Copy CRC 1B9EE832
     Accurately ripped (confidence 1)  [09327339]  (AR v2)
     Copy OK

Track  3

     Filename C:\rip\Christina Pluhar, L' Arpeggiata - Händel Goes Wild (2017) {Erato 0190295811709} [FLAC-CD]\03 - O sleep, why dost thou leave me (Aria di Semele, from Semele HWV 58).wav

     Pre-gap length  0:00:03.72

     Peak level 58.4 %
     Extraction speed 3.3 X
     Track quality 100.0 %
     Test CRC 36C35886
     Copy CRC 36C35886
     Accurately ripped (confidence 1)  [E178991F]  (AR v2)
     Copy OK

Track  4

     Filename C:\rip\Christina Pluhar, L' Arpeggiata - Händel Goes Wild (2017) {Erato 0190295811709} [FLAC-CD]\04 - Allegro (from Concerto in G minor, RV 157).wav

     Pre-gap length  0:00:03.72

     Peak level 82.7 %
     Extraction speed 3.7 X
     Track quality 100.0 %
     Test CRC 3569AEE9
     Copy CRC 3569AEE9
     Accurately ripped (confidence 1)  [0C43F28C]  (AR v2)
     Copy OK

Track  5

     Filename C:\rip\Christina Pluhar, L' Arpeggiata - Händel Goes Wild (2017) {Erato 0190295811709} [FLAC-CD]\05 - Cara sposa (Aria di Rinaldo, from Rinaldo HWV 7).wav

     Pre-gap length  0:00:03.72

     Peak level 94.3 %
     Extraction speed 4.4 X
     Track quality 100.0 %
     Test CRC 2414234A
     Copy CRC 2414234A
     Accurately ripped (confidence 1)  [91DD67F9]  (AR v2)
     Copy OK

Track  6

     Filename C:\rip\Christina Pluhar, L' Arpeggiata - Händel Goes Wild (2017) {Erato 0190295811709} [FLAC-CD]\06 - Where'er you walk (Aria di Semele, from Semele HWV 58).wav

     Pre-gap length  0:00:03.72

     Peak level 75.7 %
     Extraction speed 4.2 X
     Track quality 100.0 %
     Test CRC 0C14AE46
     Copy CRC 0C14AE46
     Accurately ripped (confidence 1)  [B6C0D56D]  (AR v2)
     Copy OK

Track  7

     Filename C:\rip\Christina Pluhar, L' Arpeggiata - Händel Goes Wild (2017) {Erato 0190295811709} [FLAC-CD]\07 - Sinfonia (The Arrival of the Queen of Sheba, from Solomon HWV 67).wav

     Pre-gap length  0:00:03.72

     Peak level 85.6 %
     Extraction speed 4.5 X
     Track quality 100.0 %
     Test CRC 6E1A7DDC
     Copy CRC 6E1A7DDC
     Accurately ripped (confidence 1)  [2C8609CB]  (AR v2)
     Copy OK

Track  8

     Filename C:\rip\Christina Pluhar, L' Arpeggiata - Händel Goes Wild (2017) {Erato 0190295811709} [FLAC-CD]\08 - Pena tiranna (Aria di Dardano, from Amadigi di Gaula HWV 11).wav

     Pre-gap length  0:00:03.72

     Peak level 94.3 %
     Extraction speed 5.0 X
     Track quality 100.0 %
     Test CRC 3FF4253A
     Copy CRC 3FF4253A
     Accurately ripped (confidence 1)  [B533A3E1]  (AR v2)
     Copy OK

Track  9

     Filename C:\rip\Christina Pluhar, L' Arpeggiata - Händel Goes Wild (2017) {Erato 0190295811709} [FLAC-CD]\09 - Piangerò la sorte mia (Aria di Cleopatra, from Giulio Cesare in Egitto HWV 17).wav

     Pre-gap length  0:00:03.72

     Peak level 63.3 %
     Extraction speed 4.7 X
     Track quality 99.9 %
     Test CRC FB246863
     Copy CRC FB246863
     Accurately ripped (confidence 1)  [C782229B]  (AR v2)
     Copy OK

Track 10

     Filename C:\rip\Christina Pluhar, L' Arpeggiata - Händel Goes Wild (2017) {Erato 0190295811709} [FLAC-CD]\10 - Canario (Improvisations based on Girolamo Kapsberger).wav

     Pre-gap length  0:00:03.72

     Peak level 94.0 %
     Extraction speed 4.7 X
     Track quality 99.9 %
     Test CRC 3AEFEC6B
     Copy CRC 3AEFEC6B
     Accurately ripped (confidence 1)  [6A1785BC]  (AR v2)
     Copy OK

Track 11

     Filename C:\rip\Christina Pluhar, L' Arpeggiata - Händel Goes Wild (2017) {Erato 0190295811709} [FLAC-CD]\11 - Verdi prati (Aria di Ruggiero, from Alcina HWV 34).wav

     Pre-gap length  0:00:03.72

     Peak level 90.7 %
     Extraction speed 5.1 X
     Track quality 100.0 %
     Test CRC F4EC27D1
     Copy CRC F4EC27D1
     Accurately ripped (confidence 1)  [4907DCFF]  (AR v2)
     Copy OK

Track 12

     Filename C:\rip\Christina Pluhar, L' Arpeggiata - Händel Goes Wild (2017) {Erato 0190295811709} [FLAC-CD]\12 - Tu del Ciel ministro eletto (Aria di Bellezza, from Il trionfo del Tempo e del Disinganno HWV 46a).wav

     Pre-gap length  0:00:03.72

     Peak level 89.8 %
     Extraction speed 2.0 X
     Track quality 99.9 %
     Test CRC 0A2EBE13
     Copy CRC 0A2EBE13
     Accurately ripped (confidence 1)  [25093690]  (AR v2)
     Copy OK

Track 13

     Filename C:\rip\Christina Pluhar, L' Arpeggiata - Händel Goes Wild (2017) {Erato 0190295811709} [FLAC-CD]\13 - Mi lusinga il dolce affetto (Aria di Ruggiero, from Alcina HWV 34).wav

     Pre-gap length  0:00:03.72

     Peak level 96.4 %
     Extraction speed 2.4 X
     Track quality 100.0 %
     Test CRC 14062B7B
     Copy CRC 14062B7B
     Accurately ripped (confidence 1)  [691A1603]  (AR v2)
     Copy OK

Track 14

     Filename C:\rip\Christina Pluhar, L' Arpeggiata - Händel Goes Wild (2017) {Erato 0190295811709} [FLAC-CD]\14 - Lascia ch'io pianga (Aria di Almirena, from Rinaldo HWV 7).wav

     Pre-gap length  0:00:03.72

     Peak level 93.7 %
     Extraction speed 2.2 X
     Track quality 100.0 %
     Test CRC CBB5BB64
     Copy CRC CBB5BB64
     Accurately ripped (confidence 1)  [5E87DB71]  (AR v2)
     Copy OK

Track 15

     Filename C:\rip\Christina Pluhar, L' Arpeggiata - Händel Goes Wild (2017) {Erato 0190295811709} [FLAC-CD]\15 - Ombra mai fu (Aria di Serse, from Serse HWV 40).wav

     Pre-gap length  0:00:03.72

     Peak level 96.4 %
     Extraction speed 2.4 X
     Track quality 100.0 %
     Test CRC 8982288C
     Copy CRC 8982288C
     Accurately ripped (confidence 1)  [635EEFE5]  (AR v2)
     Copy OK

All tracks accurately ripped

No errors occurred

End of status report

---- CUETools DB Plugin V2.1.6

[CTDB TOCID: o119XNPCvUziwlZPrfTvAmZZZcM-] found
Submit result: The operation has timed out
Track | CTDB Status
  1   | (32/32) Accurately ripped
  2   | (32/32) Accurately ripped
  3   | (32/32) Accurately ripped
  4   | (32/32) Accurately ripped
  5   | (32/32) Accurately ripped
  6   | (32/32) Accurately ripped
  7   | (32/32) Accurately ripped
  8   | (32/32) Accurately ripped
  9   | (32/32) Accurately ripped
 10   | (32/32) Accurately ripped
 11   | (32/32) Accurately ripped
 12   | (32/32) Accurately ripped
 13   | (32/32) Accurately ripped
 14   | (32/32) Accurately ripped
 15   | (32/32) Accurately ripped

==== Log checksum A0969011F6766E3EA1C932513494E202968B348B23244D3207E29FCD52E694DC ====

Код:

REM GENRE Baroque
REM DATE 2017
REM DISCID B511B20F
REM COMMENT "ExactAudioCopy v1.3"
CATALOG 0190295811693
PERFORMER "Christina Pluhar"
TITLE "Hдndel Goes Wild"
REM COMPOSER "Georg Friedrich Händel"
FILE "01 - Sinfonia (From Alcina HWV 34).wav" WAVE
  TRACK 01 AUDIO
    TITLE "Sinfonia (From Alcina HWV 34)"
    PERFORMER "Christina Pluhar"
    REM COMPOSER "Georg Friedrich Händel"
    ISRC GBPFW1700016
    INDEX 01 00:00:00
  TRACK 02 AUDIO
    TITLE "Venti, turbini (Aria di Rinaldo, from Rinaldo HWV 7)"
    PERFORMER "Christina Pluhar"
    REM COMPOSER "Georg Friedrich Händel"
    ISRC GBPFW1700017
    INDEX 00 04:57:24
FILE "02 - Venti, turbini (Aria di Rinaldo, from Rinaldo HWV 7).wav" WAVE
    INDEX 01 00:00:00
  TRACK 03 AUDIO
    TITLE "O sleep, why dost thou leave me (Aria di Semele, from Semele HWV 58)"
    PERFORMER "Christina Pluhar"
    REM COMPOSER "Georg Friedrich Händel"
    ISRC GBPFW1700018
    INDEX 00 05:37:07
FILE "03 - O sleep, why dost thou leave me (Aria di Semele, from Semele HWV 58).wav" WAVE
    INDEX 01 00:00:00
  TRACK 04 AUDIO
    TITLE "Allegro (from Concerto in G minor, RV 157)"
    PERFORMER "Christina Pluhar"
    REM COMPOSER "Georg Friedrich Händel"
    ISRC GBPFW1700019
    INDEX 00 03:04:02
FILE "04 - Allegro (from Concerto in G minor, RV 157).wav" WAVE
    INDEX 01 00:00:00
  TRACK 05 AUDIO
    TITLE "Cara sposa (Aria di Rinaldo, from Rinaldo HWV 7)"
    PERFORMER "Christina Pluhar"
    REM COMPOSER "Georg Friedrich Händel"
    ISRC GBPFW1700020
    INDEX 00 04:10:39
FILE "05 - Cara sposa (Aria di Rinaldo, from Rinaldo HWV 7).wav" WAVE
    INDEX 01 00:00:00
  TRACK 06 AUDIO
    TITLE "Where'er you walk (Aria di Semele, from Semele HWV 58)"
    PERFORMER "Christina Pluhar"
    REM COMPOSER "Georg Friedrich Händel"
    ISRC GBPFW1700021
    INDEX 00 09:26:31
FILE "06 - Where'er you walk (Aria di Semele, from Semele HWV 58).wav" WAVE
    INDEX 01 00:00:00
  TRACK 07 AUDIO
    TITLE "Sinfonia (The Arrival of the Queen of Sheba, from Solomon HWV 67)"
    PERFORMER "Christina Pluhar"
    REM COMPOSER "Georg Friedrich Händel"
    ISRC GBPFW1700022
    INDEX 00 03:33:50
FILE "07 - Sinfonia (The Arrival of the Queen of Sheba, from Solomon HWV 67).wav" WAVE
    INDEX 01 00:00:00
  TRACK 08 AUDIO
    TITLE "Pena tiranna (Aria di Dardano, from Amadigi di Gaula HWV 11)"
    PERFORMER "Christina Pluhar"
    REM COMPOSER "Georg Friedrich Händel"
    ISRC GBPFW1700023
    INDEX 00 04:05:63
FILE "08 - Pena tiranna (Aria di Dardano, from Amadigi di Gaula HWV 11).wav" WAVE
    INDEX 01 00:00:00
  TRACK 09 AUDIO
    TITLE "Piangerò la sorte mia (Aria di Cleopatra, from Giulio Cesare in Egitto HWV 17)"
    PERFORMER "Christina Pluhar"
    REM COMPOSER "Georg Friedrich Händel"
    ISRC GBPFW1700024
    INDEX 00 06:32:36
FILE "09 - Piangerò la sorte mia (Aria di Cleopatra, from Giulio Cesare in Egitto HWV 17).wav" WAVE
    INDEX 01 00:00:00
  TRACK 10 AUDIO
    TITLE "Canario (Improvisations based on Girolamo Kapsberger)"
    PERFORMER "Christina Pluhar"
    REM COMPOSER "Georg Friedrich Händel"
    ISRC GBPFW1700025
    INDEX 00 05:33:44
FILE "10 - Canario (Improvisations based on Girolamo Kapsberger).wav" WAVE
    INDEX 01 00:00:00
  TRACK 11 AUDIO
    TITLE "Verdi prati (Aria di Ruggiero, from Alcina HWV 34)"
    PERFORMER "Christina Pluhar"
    REM COMPOSER "Georg Friedrich Händel"
    ISRC GBPFW1700026
    INDEX 00 04:50:55
FILE "11 - Verdi prati (Aria di Ruggiero, from Alcina HWV 34).wav" WAVE
    INDEX 01 00:00:00
  TRACK 12 AUDIO
    TITLE "Tu del Ciel ministro eletto (Aria di Bellezza, from Il trionfo del Tempo e de..."
    PERFORMER "Christina Pluhar"
    REM COMPOSER "Georg Friedrich Händel"
    ISRC GBPFW1700027
    INDEX 00 03:41:22
FILE "12 - Tu del Ciel ministro eletto (Aria di Bellezza, from Il trionfo del Tempo e del Disinganno HWV 46a).wav" WAVE
    INDEX 01 00:00:00
  TRACK 13 AUDIO
    TITLE "Mi lusinga il dolce affetto (Aria di Ruggiero, from Alcina HWV 34)"
    PERFORMER "Christina Pluhar"
    REM COMPOSER "Georg Friedrich Händel"
    ISRC GBPFW1700028
    INDEX 00 03:44:02
FILE "13 - Mi lusinga il dolce affetto (Aria di Ruggiero, from Alcina HWV 34).wav" WAVE
    INDEX 01 00:00:00
  TRACK 14 AUDIO
    TITLE "Lascia ch'io pianga (Aria di Almirena, from Rinaldo HWV 7)"
    PERFORMER "Christina Pluhar"
    REM COMPOSER "Georg Friedrich Händel"
    ISRC GBPFW1700029
    INDEX 00 06:34:45
FILE "14 - Lascia ch'io pianga (Aria di Almirena, from Rinaldo HWV 7).wav" WAVE
    INDEX 01 00:00:00
  TRACK 15 AUDIO
    TITLE "Ombra mai fu (Aria di Serse, from Serse HWV 40)"
    PERFORMER "Christina Pluhar"
    REM COMPOSER "Georg Friedrich Händel"
    ISRC GBPFW1700030
    INDEX 00 03:44:68
FILE "15 - Ombra mai fu (Aria di Serse, from Serse HWV 40).wav" WAVE
    INDEX 01 00:00:00
Céline Scheen, soprano
Valer Sabadus, counter-tenor
Gianluigi Trovesi, clarinet
L'Arpeggiata
Christina Pluhar, theorbe & direction
7digital.com

Этот торрент недоступен для скачивания без регистрации, однако доступен по публичной magnet-ссылке (источники с публичных трекеров). Перед использованием ссылки прочтите, пожалуйста Пользовательское соглашение, а также как можно дольше оставайтесь на раздаче! Для того, чтобы скачать сам торрент-файл (который видит больше источников), а также для того, чтобы поблагодарить релизера, вам необходимо зарегистрироваться. Если регистрироваться лень - вы можете также попробовать скачать релиз по нашим партнерским ссылкам ниже. Кроме того, зарегистрированным пользователям не показывается всплывающая реклама при скачивании.

[underverse.me].t94012.torrent
Трекер: Зарегистрирован   [ 31.12.2017 07:13 ]  

Статус: проверено (by Darkferse at 31.12.2017 07:15)
Поблагодарили: пока никто не поблагодарил...
Тип торрента: публичный - доступные источники с открытых трекеров: 
Размер: 365 MB (занимает 0,08 DVDR, для записи нужно 1 болванка DVDR/RW)
 
 
Похожие темы
Форум Тема Автор Торрент Отв. Посл. сооб.
Сборники Pop, Disco, Dance (Classical, Piano) VA - Piano Covers: 14 Beautiful Piano Arrangements Of Pop Hits (2019) [MP3, 320 kbps CBR] 90ytr90
2 | 0

0 | 565

19

14.09.2019 07:27

Сборники Pop, Disco, Dance (Classical, Easy Listening, Jazz, Score, Ballad) VA - The Sound Of Musicals The Ultimate Collection (Box Set, 5CD) (2019) [MP3, 320 kbps CBR] Magnat
0 | 0

0 | 572

6

28.10.2019 11:46

Вокальные и хоровые искусства (Classical) Jamie Barton - All Who Wander (Mahler, Dvorak, Sibelius; Zeger) (2016) [MP3, 320 kbps CBR] Darkferse
1 | 0

0 | 1713

7

04.09.2017 21:29

Вокальные и хоровые искусства (Classical, Romantic) Elina Garanca, Orquestra de la Comunitat Valenciana, Roberto Abbado - Revive (2016) [MP3, 320 kbps CBR] Darkferse
0 | 0

0 | 1609

5

04.09.2017 21:42

Вокальные и хоровые искусства (Classical) Khoren Mekanejian - Khorenian Divine Liturgy (Choir of St. Gregory the Illuminator Cathedral) (2017) [MP3, 320 kbps CBR] Darkferse
0 | 1

0 | 1501

4

04.09.2017 22:35

Оркестровая музыка (Classical) Прокофьев - Complete Symphonies/Полное собрание Симфоний [Валерий Гергиев, London Symphony Orchestra] (2006) [MP3, 320 kbps] Jimmy
0 | 0

0 | 3909

28

18.12.2013 17:55

Оркестровая музыка (Classical) Прокофьев - Complete Piano Concertos/Полное собрание Концертов для фортепиано [Александр Торадзе, Валерий Гергиев] (1997) [MP3, 320 kbps] Jimmy
0 | 0

0 | 3968

19

19.12.2013 16:52

Оркестровая музыка (Classical) Beethoven/Бетховен - Complete Symphonies and Piano Concertos/Полное собрание Симфоний и Концертов для фортепиано [Otto Klemperer, Daniel Barenboim] (2000) [MP3, 320 kbps] Jimmy
1 | 1

0 | 4823

38

24.12.2013 15:37

Оркестровая музыка (Classical) Шостакович - Полное собрание Симфоний / Complete Symphonies (Василий Петренко / Vasily Petrenko) (2015) [MP3, 320 kbps CBR] Darkferse
1 | 0

0 | 1589

17

28.12.2017 00:17

Камерная и инструментальная музыка (Classical) Вольфганг Амадей Моцарт / Wolfgang Amadeus Mozart - Romantic Classic (1999) [MP3, 320 kbps CBR] terra07
3 | 0

1 | 5539

83

13.04.2015 16:28


Яндекс.Метрика powered by Sphinx


В Н И М А Н И Е
Сайт не распространяет и не хранит электронные версии произведений, а лишь бесплатно и без коммерческой выгоды (не требуя взамен платы,
SMS и т.д.) предоставляет доступ к создаваемому пользователями каталогу ссылок на торрент-файлы, которые содержат только списки хеш-сумм.
Убедительная просьба с жалобами обращаться напрямую к пользователю, разместившему торрент файл.

Вверх