Loading...
Error

(Classical) Joyce DiDonato - In War & Peace: Handel, Leo, Purcell, Jommelli, Monteverdi - Il Pomo d'Oro, Maxim Emelyanychev (2016) [FLAC (Image+.CUE), lossless]

Статистика раздачи
Размер:  377 MB   |    Зарегистрирован:  3 года 4 месяца   |    Скачан:  4 раза

Полного источника не было: 26 дней

Сидов:  0  |  0 KB/s  ]   Личеров:  0  |  0 KB/s  ]

* - сиды/пиры с внешних источников

   
 
Автор Сообщение

Darkferse Пол:Жен

31-Дек-2017 07:36

Joyce DiDonato - In War & Peace: Handel, Leo, Purcell, Jommelli, Monteverdi - Il Pomo d'Oro, Maxim Emelyanychev

Жанр: Classical
Год выпуска: 2016
Источник: CD
Производитель: Erato
Аудиокодек: FLAC
Тип рипа: Image+.CUE
Битрейт: lossless
Продолжительность: 01:19:12

Треклист:

War
[1] Handel: Jephta - Some dire event hangs o'er our heads (Storgè)
[2] Leo: Andromaca - Prendi quel ferro, o barbaro! (Andromaca)
[3] Handel: Giulio Cesare - Vani sono i lamenti... Svegliatevi nel core (Sesto)
[4] Purcell: The Indian Queen - They tell us that you mighty powers above (Orazia)
[5] Handel: Agrippina - Pensieri, pensieri, voi mi tormentate (Aggripina)
[6] Purcell: Dido and Aeneas - Thy hand, Belinda... When I am laid inearth (Dido)
[7] Handel: Rinaldo - Lascia ch'io pianga (Almirena)

Peace
[8] Purcell: Bonduca, or The British Heroine - Oh! lead me to some peaceful gloom (Bonvica)
[9] Handel: Rinaldo - Augelletti, che cantate (Almirena)
[10] Jommelli: Attilio Regolo - Sprezza il furor del vento (Regolo)
[11] Purcell: The Indian Queen - Why should men quarrel (Girl)
[12] Jommelli: Attilio Regolo - Par che di giubilo (Attila)
[13] Handel: Susanna - Lead me, oh lead me to some cool retreat (Susanna)
[14] Monteverdi: Il ritorno d'Ulisse in patria - Illustratevi, o cieli (Penelope)
[15] Handel: Giulio Cesare - Da tempeste il legno infranto (Cleopatra)

Исполнители:
Joyce DiDonato mezzo-soprano
Il Pomo d'Oro
Maxim Emelyanychev harpsichord & direction

Код:

Exact Audio Copy V1.1 from 23. June 2015

EAC extraction logfile from 23. March 2017, 1:03

Joyce DiDonato, Il Pomo d'Oro, Maxim Emelyanychev / Joyce DiDonato - In War & Peace

Used drive  : HL-DT-STDVDRAM GU70N   Adapter: 1  ID: 0

Read mode               : Secure
Utilize accurate stream : Yes
Defeat audio cache      : Yes
Make use of C2 pointers : No

Read offset correction                      : 48
Overread into Lead-In and Lead-Out          : No
Fill up missing offset samples with silence : Yes
Delete leading and trailing silent blocks   : No
Null samples used in CRC calculations       : Yes
Used interface                              : Native Win32 interface for Win NT & 2000

Used output format              : User Defined Encoder
Selected bitrate                : 128 kBit/s
Quality                         : High
Add ID3 tag                     : No
Command line compressor         : C:\Program Files (x86)\Exact Audio Copy\Flac\flac.exe
Additional command line options : -V -8 -T "Date=%year%" -T "Genre=%genre%" %source%

TOC of the extracted CD

     Track |   Start  |  Length  | Start sector | End sector
    ---------------------------------------------------------
        1  |  0:00.00 |  5:13.04 |         0    |    23478
        2  |  5:13.04 |  7:15.52 |     23479    |    56155
        3  | 12:28.56 |  4:47.29 |     56156    |    77709
        4  | 17:16.10 |  4:05.29 |     77710    |    96113
        5  | 21:21.39 |  6:44.34 |     96114    |   126447
        6  | 28:05.73 |  5:03.13 |    126448    |   149185
        7  | 33:09.11 |  5:32.24 |    149186    |   174109
        8  | 38:41.35 |  3:17.32 |    174110    |   188916
        9  | 41:58.67 |  5:36.16 |    188917    |   214132
       10  | 47:35.08 |  7:13.41 |    214133    |   246648
       11  | 54:48.49 |  1:30.71 |    246649    |   253469
       12  | 56:19.45 |  6:09.03 |    253470    |   281147
       13  | 62:28.48 |  8:21.10 |    281148    |   318732
       14  | 70:49.58 |  2:20.07 |    318733    |   329239
       15  | 73:09.65 |  6:02.24 |    329240    |   356413

Range status and errors

Selected range

     Filename C:\temp\Joyce DiDonato - In War & Peace\Joyce DiDonato - In War & Peace.wav

     Peak level 99.1 %
     Extraction speed 2.3 X
     Range quality 100.0 %
     Test CRC AAE0D85E
     Copy CRC AAE0D85E
     Copy OK

No errors occurred

AccurateRip summary

Track  1  accurately ripped (confidence 9)  [0D537BD4]  (AR v2)
Track  2  accurately ripped (confidence 9)  [FA74BAF4]  (AR v2)
Track  3  accurately ripped (confidence 9)  [FD98EB50]  (AR v2)
Track  4  accurately ripped (confidence 9)  [BC0F3BF7]  (AR v2)
Track  5  accurately ripped (confidence 9)  [36AF229A]  (AR v2)
Track  6  accurately ripped (confidence 9)  [8A6A4965]  (AR v2)
Track  7  accurately ripped (confidence 9)  [A68061A0]  (AR v2)
Track  8  accurately ripped (confidence 9)  [DE3893B5]  (AR v2)
Track  9  accurately ripped (confidence 9)  [0DCBBC60]  (AR v2)
Track 10  accurately ripped (confidence 9)  [1B51F5A9]  (AR v2)
Track 11  accurately ripped (confidence 9)  [32BA8AC9]  (AR v2)
Track 12  accurately ripped (confidence 9)  [E35F3A97]  (AR v2)
Track 13  accurately ripped (confidence 9)  [79288957]  (AR v2)
Track 14  accurately ripped (confidence 9)  [00EF6AAC]  (AR v2)
Track 15  accurately ripped (confidence 9)  [7D3D7F3C]  (AR v2)

All tracks accurately ripped

End of status report

==== Log checksum CF6D62E72A4B113C4A467742340A3B490F47FBF02F5166BA8EDE393EBCC61CF2 ====

Код:

REM GENRE Classical
REM DATE 2016
REM DISCID CD12900F
REM COMMENT "ExactAudioCopy v1.1"
PERFORMER "Joyce DiDonato, Il Pomo d'Oro, Maxim Emelyanychev"
TITLE "Joyce DiDonato - In War & Peace"
FILE "Joyce DiDonato - In War & Peace.flac" WAVE
  TRACK 01 AUDIO
    TITLE "Handel: Jephta - Some dire event hangs o'er our heads (Storgи)"
    PERFORMER "Joyce DiDonato, Il Pomo d'Oro, Maxim Emelyanychev"
    INDEX 01 00:00:00
  TRACK 02 AUDIO
    TITLE "Leo: Andromaca - Prendi quel ferro, o barbaro! (Andromaca)"
    PERFORMER "Joyce DiDonato, Il Pomo d'Oro, Maxim Emelyanychev"
    INDEX 01 05:13:04
  TRACK 03 AUDIO
    TITLE "Handel: Giulio Cesare - Vani sono i lamenti... Svegliatevi nel core (Sesto)"
    PERFORMER "Joyce DiDonato, Il Pomo d'Oro, Maxim Emelyanychev"
    INDEX 01 12:28:56
  TRACK 04 AUDIO
    TITLE "Purcell: The Indian Queen - They tell us that you mighty powers above (Orazia)"
    PERFORMER "Joyce DiDonato, Il Pomo d'Oro, Maxim Emelyanychev"
    INDEX 01 17:16:10
  TRACK 05 AUDIO
    TITLE "Handel: Agrippina - Pensieri, pensieri, voi mi tormentate (Aggripina)"
    PERFORMER "Joyce DiDonato, Il Pomo d'Oro, Maxim Emelyanychev"
    INDEX 01 21:21:39
  TRACK 06 AUDIO
    TITLE "Purcell: Dido and Aeneas - Thy hand, Belinda... When I am laid inearth (Dido)"
    PERFORMER "Joyce DiDonato, Il Pomo d'Oro, Maxim Emelyanychev"
    INDEX 01 28:05:73
  TRACK 07 AUDIO
    TITLE "Handel: Rinaldo - Lascia ch'io pianga (Almirena)"
    PERFORMER "Joyce DiDonato, Il Pomo d'Oro, Maxim Emelyanychev"
    INDEX 01 33:09:11
  TRACK 08 AUDIO
    TITLE "Purcell: Bonduca, or The British Heroine - Oh! lead me to some peaceful gloom (Bonvica)"
    PERFORMER "Joyce DiDonato, Il Pomo d'Oro, Maxim Emelyanychev"
    INDEX 01 38:41:35
  TRACK 09 AUDIO
    TITLE "Handel: Rinaldo - Augelletti, che cantate (Almirena)"
    PERFORMER "Joyce DiDonato, Il Pomo d'Oro, Maxim Emelyanychev"
    INDEX 01 41:58:67
  TRACK 10 AUDIO
    TITLE "Jommelli: Attilio Regolo - Sprezza il furor del vento (Regolo)"
    PERFORMER "Joyce DiDonato, Il Pomo d'Oro, Maxim Emelyanychev"
    INDEX 01 47:35:08
  TRACK 11 AUDIO
    TITLE "Purcell: The Indian Queen - Why should men quarrel (Girl)"
    PERFORMER "Joyce DiDonato, Il Pomo d'Oro, Maxim Emelyanychev"
    INDEX 01 54:48:49
  TRACK 12 AUDIO
    TITLE "Jommelli: Attilio Regolo - Par che di giubilo (Attila)"
    PERFORMER "Joyce DiDonato, Il Pomo d'Oro, Maxim Emelyanychev"
    INDEX 01 56:19:45
  TRACK 13 AUDIO
    TITLE "Handel: Susanna - Lead me, oh lead me to some cool retreat (Susanna)"
    PERFORMER "Joyce DiDonato, Il Pomo d'Oro, Maxim Emelyanychev"
    INDEX 01 62:28:48
  TRACK 14 AUDIO
    TITLE "Monteverdi: Il ritorno d'Ulisse in patria - Illustratevi, o cieli (Penelope)"
    PERFORMER "Joyce DiDonato, Il Pomo d'Oro, Maxim Emelyanychev"
    INDEX 01 70:49:58
  TRACK 15 AUDIO
    TITLE "Handel: Giulio Cesare - Da tempeste il legno infranto (Cleopatra)"
    PERFORMER "Joyce DiDonato, Il Pomo d'Oro, Maxim Emelyanychev"
    INDEX 01 73:09:65

Этот торрент недоступен для скачивания без регистрации, однако доступен по публичной magnet-ссылке (источники с публичных трекеров). Перед использованием ссылки прочтите, пожалуйста Пользовательское соглашение, а также как можно дольше оставайтесь на раздаче! Для того, чтобы скачать сам торрент-файл (который видит больше источников), а также для того, чтобы поблагодарить релизера, вам необходимо зарегистрироваться. Если регистрироваться лень - вы можете также попробовать скачать релиз по нашим партнерским ссылкам ниже. Кроме того, зарегистрированным пользователям не показывается всплывающая реклама при скачивании.

[underverse.me].t94013.torrent
Трекер: Зарегистрирован   [ 31.12.2017 07:36 ]  

Статус: проверено (by Darkferse at 31.12.2017 07:37)
Поблагодарили: пока никто не поблагодарил...
Тип торрента: публичный - доступные источники с открытых трекеров: 
Размер: 377 MB (занимает 0,08 DVDR, для записи нужно 1 болванка DVDR/RW)
 
 
Похожие темы
Форум Тема Автор Торрент Отв. Посл. сооб.
Сборники Pop, Disco, Dance (Classical, Piano) VA - Piano Covers: 14 Beautiful Piano Arrangements Of Pop Hits (2019) [MP3, 320 kbps CBR] 90ytr90
2 | 0

0 | 565

19

14.09.2019 07:27

Сборники Pop, Disco, Dance (Classical, Easy Listening, Jazz, Score, Ballad) VA - The Sound Of Musicals The Ultimate Collection (Box Set, 5CD) (2019) [MP3, 320 kbps CBR] Magnat
0 | 0

0 | 572

6

28.10.2019 11:46

Вокальные и хоровые искусства (Classical) Jamie Barton - All Who Wander (Mahler, Dvorak, Sibelius; Zeger) (2016) [MP3, 320 kbps CBR] Darkferse
1 | 0

0 | 1713

7

04.09.2017 21:29

Вокальные и хоровые искусства (Classical, Romantic) Elina Garanca, Orquestra de la Comunitat Valenciana, Roberto Abbado - Revive (2016) [MP3, 320 kbps CBR] Darkferse
0 | 0

0 | 1609

5

04.09.2017 21:42

Вокальные и хоровые искусства (Classical) Khoren Mekanejian - Khorenian Divine Liturgy (Choir of St. Gregory the Illuminator Cathedral) (2017) [MP3, 320 kbps CBR] Darkferse
0 | 1

0 | 1501

4

04.09.2017 22:35

Оркестровая музыка (Classical) Прокофьев - Complete Symphonies/Полное собрание Симфоний [Валерий Гергиев, London Symphony Orchestra] (2006) [MP3, 320 kbps] Jimmy
0 | 0

0 | 3909

28

18.12.2013 17:55

Оркестровая музыка (Classical) Прокофьев - Complete Piano Concertos/Полное собрание Концертов для фортепиано [Александр Торадзе, Валерий Гергиев] (1997) [MP3, 320 kbps] Jimmy
0 | 0

0 | 3968

19

19.12.2013 16:52

Оркестровая музыка (Classical) Beethoven/Бетховен - Complete Symphonies and Piano Concertos/Полное собрание Симфоний и Концертов для фортепиано [Otto Klemperer, Daniel Barenboim] (2000) [MP3, 320 kbps] Jimmy
1 | 1

0 | 4823

38

24.12.2013 15:37

Оркестровая музыка (Classical) Шостакович - Полное собрание Симфоний / Complete Symphonies (Василий Петренко / Vasily Petrenko) (2015) [MP3, 320 kbps CBR] Darkferse
1 | 0

0 | 1589

17

28.12.2017 00:17

Камерная и инструментальная музыка (Classical) Вольфганг Амадей Моцарт / Wolfgang Amadeus Mozart - Romantic Classic (1999) [MP3, 320 kbps CBR] terra07
3 | 0

1 | 5539

83

13.04.2015 16:28


Яндекс.Метрика powered by Sphinx


В Н И М А Н И Е
Сайт не распространяет и не хранит электронные версии произведений, а лишь бесплатно и без коммерческой выгоды (не требуя взамен платы,
SMS и т.д.) предоставляет доступ к создаваемому пользователями каталогу ссылок на торрент-файлы, которые содержат только списки хеш-сумм.
Убедительная просьба с жалобами обращаться напрямую к пользователю, разместившему торрент файл.

Вверх