Loading...
Error

Красная душа / De Rode Ziel (Джессика Гортер) [2017 г., документальный, драма, история, HDRip 720р] Original (Rus) + Sub (NLD)

Статистика раздачи
Размер:  1,4 GB   |    Зарегистрирован:  1 год 10 месяцев   |    Скачан:  11 раз

Полного источника не было: 1 год 1 месяц

Сидов:  0  |  0 KB/s  ]   Личеров:  0  |  0 KB/s  ]

* - сиды/пиры с внешних источников

   
 
Автор Сообщение

ARI71 Пол:Муж

01-Фев-2018 15:59

Красная душа / De Rode Ziel


Год выпуска: 2017
Жанр: документальный, драма, история
Страна: Нидерланды Zeppers film
Режиссер: Джессика Гортер
В ролях: Джессика Гортер
Сюжет фильма:
Почти каждая семья в Советском Союзе пострадала от сталинского террора, но, тем не менее, до сих пор в российском обществе продолжаются споры об историческом значении этой личности. Так кто же такой — Сталин? Герой, который привел Советский Союз к победе? Или массовый убийца, уничтоживший миллионы собственных граждан?.. По сей день эти вопросы делят россиян на два непримиримых лагеря. Как бороться с болезненными воспоминаниями о своем прошлом? Как оценивать это прошлое?..

Качество видео: HDRip 720р

Продолжительность: 01:30:43
Формат: МР4
Видео: x264, 1280x720, 1980 kbps
Аудио: русский, оригинал, AAC 2.0, 256 kbps
Субтитры: тип: вшитые неотключаемые, нидерландский, формат: SRT

Код:

Общее
Полное имя : D:\Красная душа\De Rode Ziel 2017.mp4
Формат : MPEG-4
Профиль формата : Base Media
Идентификатор кодека : isom (isom/iso2/avc1/mp41)
Размер файла : 1,40 Гбайт
Продолжительность : 1 ч. 30 м.
Общий поток : 2217 Кбит/сек
Программа кодирования : Lavf57.83.100

Видео
Идентификатор : 1
Формат : AVC
Формат/Информация : Advanced Video Codec
Профиль формата : High@L3.1
Настройки формата : CABAC / 4 Ref Frames
Параметр CABAC формата : Да
Параметр RefFrames формата : 4 кадра
Идентификатор кодека : avc1
Идентификатор кодека/Информация : Advanced Video Coding
Продолжительность : 1 ч. 30 м.
Битрейт : 1980 Кбит/сек
Ширина : 1280 пикселей
Высота : 720 пикселей
Соотношение сторон : 16:9
Режим частоты кадров : Постоянный
Частота кадров : 30,000 кадров/сек
Цветовое пространство : YUV
Субдискретизация насыщенности : 4:2:0
Битовая глубина : 8 бит
Тип развёртки : Прогрессивная
Бит/(Пиксели*Кадры) : 0.072
Размер потока : 1,23 Гбайт (88%)
Библиотека кодирования : x264 core 148
Настройки программы : cabac=1 / ref=2 / deblock=1:0:0 / analyse=0x3:0x113 / me=hex / subme=6 / psy=1 / psy_rd=1.00:0.00 / mixed_ref=1 / me_range=16 / chroma_me=1 / trellis=1 / 8x8dct=1 / cqm=0 / deadzone=21,11 / fast_pskip=1 / chroma_qp_offset=-2 / threads=6 / lookahead_threads=1 / sliced_threads=0 / nr=0 / decimate=1 / interlaced=0 / bluray_compat=0 / constrained_intra=0 / bframes=3 / b_pyramid=2 / b_adapt=1 / b_bias=0 / direct=1 / weightb=1 / open_gop=0 / weightp=1 / keyint=250 / keyint_min=25 / scenecut=40 / intra_refresh=0 / rc_lookahead=30 / rc=2pass / mbtree=1 / bitrate=1980 / ratetol=1.0 / qcomp=0.60 / qpmin=0 / qpmax=69 / qpstep=4 / cplxblur=20.0 / qblur=0.5 / vbv_maxrate=1980 / vbv_bufsize=3960 / nal_hrd=none / filler=0 / ip_ratio=1.40 / aq=1:1.00

Аудио
Идентификатор : 2
Формат : AAC
Формат/Информация : Advanced Audio Codec
Профиль формата : LC
Идентификатор кодека : mp4a-40-2
Продолжительность : 1 ч. 30 м.
Вид битрейта : Постоянный
Битрейт : 256 Кбит/сек
Каналы : 2 канала
Расположение каналов : Front: L R
Частота : 44,1 КГц
Частота кадров : 43,066 кадра/сек (1024 SPF)
Метод сжатия : С потерями
Размер потока : 165 Мбайт (12%)
Default : Да
AlternateGroup/String : 1
picpicpicpicpicpicpic
Для увеличения картинки щелкните мышкой по превью

Этот торрент недоступен для скачивания без регистрации, однако доступен по публичной magnet-ссылке (источники с публичных трекеров). Перед использованием ссылки прочтите, пожалуйста Пользовательское соглашение, а также как можно дольше оставайтесь на раздаче! Для того, чтобы скачать сам торрент-файл (который видит больше источников), а также для того, чтобы поблагодарить релизера, вам необходимо зарегистрироваться. Если регистрироваться лень - вы можете также попробовать скачать релиз по нашим партнерским ссылкам ниже. Кроме того, зарегистрированным пользователям не показывается всплывающая реклама при скачивании.

[underverse.me].t95624.torrent
Трекер: Зарегистрирован   [ 01.02.2018 15:59 ]  

Статус: проверено (by ARI71 at 01.02.2018 16:01)
Поблагодарили: пока никто не поблагодарил...
Тип торрента: публичный - доступные источники с открытых трекеров: 
Размер: 1,4 GB (занимает 0,32 DVDR, для записи нужно 1 болванка DVDR/RW)
 
 

20-Мар-2019 22:23

Топик был перенесен из форума Исторические фильмы в форум Архив (документальное кино)


[cron robot]
 

Яндекс.Метрика powered by Sphinx


В Н И М А Н И Е
Сайт не распространяет и не хранит электронные версии произведений, а лишь бесплатно и без коммерческой выгоды (не требуя взамен платы,
SMS и т.д.) предоставляет доступ к создаваемому пользователями каталогу ссылок на торрент-файлы, которые содержат только списки хеш-сумм.
Убедительная просьба с жалобами обращаться напрямую к пользователю, разместившему торрент файл.

Вверх