Loading...
Error

Легенда о Коловрате (Джаник Файзиев, Иван Шурховецкий) [2017 г., история, боевик, фэнтези, BDRemux 1080p] [GER Transfer] Original (Rus) + Ger + Sub (Ger)

Статистика раздачи
Размер:  32,3 GB   |    Зарегистрирован:  2 года 5 месяцев   |    Скачан:  12 раз

Полного источника не было: 1 месяц 19 дней

Сидов:  0  |  0 KB/s  ]   Личеров:  0  |  0 KB/s  ]

* - сиды/пиры с внешних источников

   
 
Автор Сообщение

90ytr90 

24-Фев-2018 09:34

Легенда о Коловрате


«Героем может стать каждый»

Название: Легенда о Коловрате
Год выхода: 2017
Жанр: История, боевик, фэнтези
Режиссер-постановщик: Джаник Файзиев, Иван Шурховецкий
В главных ролях: Илья Малаков, Полина Чернышова, Алексей Серебряков, Александр Ильин мл., Игорь Савочкин, Тимофей Трибунцев, Александр Цой, Юлия Хлынина, Андрей Бурковский, Виктор Проскурин

Описание:
XIII век. Русь раздроблена и вот-вот падет на колени перед ханом Золотой Орды Батыем. Испепеляя города и заливая русские земли кровью, захватчики не встречают серьезного сопротивления, и лишь один воин бросает им вызов. Молодой рязанский витязь Евпатий Коловрат возглавляет отряд смельчаков, чтобы отомстить за свою любовь и за свою родину. Его отвага поразит даже Батыя, а его имя навсегда останется в памяти народа. Воин, ставший легендой. Подвиг, сохранившийся в веках.



Страна: Россия
Студия: Централ Партнершип, Киностудия КИТ, Продюсерский центр ИВАН
Продолжительность: 1:57:52
Перевод: Не требуется | Лицензия

Качество: BDRemux 1080p
Формат: MKV
Кодек: MPEG-4 AVC Video
Видео: 1920x1080 (16:9), 23,976 fps, MPEG-4 AVC Video ~ 33,0 Мbps avg, 0.664 bit/pixel
Аудио#1: DTS-HD MA, 48 kHz, 6 ch, ~2090.00 kbps avg | русский | Blu-ray GER
Аудио#2: DTS-HD MA, 48 kHz, 6 ch, ~4100.00 kbps avg | немецкий | Blu-ray GER

Субтитры: Немецкие (Forced)
Сэмпл
Общее
Уникальный идентификатор : 202325685102741490655015042287403315125 (0x983682719800B13BAEDE797D9164AFB5)
Полное имя : LEGENDA.O.KOLOVRATE.2017.Blu.Ray.REMUX.GER.1080p. AVC.DTS-HD.MA 5.1-PWR.mkv
Формат : Matroska
Версия формата : Version 4 / Version 2
Размер файла : 32,3 Гбайт
Продолжительность : 1 ч. 57 м.
Режим общего битрейта : Переменный
Общий поток : 39,2 Мбит/сек
Дата кодирования : UTC 2018-02-24 06:18:24
Программа кодирования : mkvmerge v9.7.1 ('Pandemonium') 64bit
Библиотека кодирования : libebml v1.3.4 + libmatroska v1.4.5

Видео
Идентификатор : 1
Формат : AVC
Формат/Информация : Advanced Video Codec
Профиль формата : High@L4.1
Настройки формата : CABAC / 3 Ref Frames
Параметр CABAC формата : Да
Параметр ReFrames формата : 3 кадра
Идентификатор кодека : V_MPEG4/ISO/AVC
Продолжительность : 1 ч. 57 м.
Вид битрейта : Переменный
Битрейт : 33,0 Мбит/сек
Максимальный битрейт : 37,0 Мбит/сек
Ширина : 1920 пикселей
Высота : 1080 пикселей
Соотношение сторон : 16:9
Режим частоты кадров : Постоянный
Частота кадров : 23,976 (24000/1001) кадра/сек
Цветовое пространство : YUV
Субдискретизация насыщенности : 4:2:0
Битовая глубина : 8 бит
Тип развёртки : Прогрессивная
Бит/(Пиксели*Кадры) : 0.664
Размер потока : 27,2 Гбайт (84%)
Default : Да
Forced : Нет

Аудио #1
Идентификатор : 2
Формат : DTS
Формат/Информация : Digital Theater Systems
Профиль формата : MA / Core
Идентификатор кодека : A_DTS
Продолжительность : 1 ч. 57 м.
Вид битрейта : Переменный / Постоянный
Битрейт : 2090 Кбит/сек / 1509 Кбит/сек
Каналы : 6 каналов
Расположение каналов : Front: L C R, Side: L R, LFE
Частота : 48,0 КГц
Частота кадров : 93,750 кадра/сек (512 SPF)
Битовая глубина : 16 бит
Метод сжатия : Без потерь / Lossy
Размер потока : 1,72 Гбайт (5%)
Язык : Russian
Default : Да
Forced : Нет

Аудио #2
Идентификатор : 3
Формат : DTS
Формат/Информация : Digital Theater Systems
Профиль формата : MA / Core
Идентификатор кодека : A_DTS
Продолжительность : 1 ч. 57 м.
Вид битрейта : Переменный / Постоянный
Битрейт : 4100 Кбит/сек / 1509 Кбит/сек
Каналы : 6 каналов
Расположение каналов : Front: L C R, Side: L R, LFE
Частота : 48,0 КГц
Частота кадров : 93,750 кадра/сек (512 SPF)
Битовая глубина : 24 бит
Метод сжатия : Без потерь / Lossy
Размер потока : 3,38 Гбайт (10%)
Язык : German
Default : Нет
Forced : Нет

Текст
Идентификатор : 4
Формат : UTF-8
Идентификатор кодека : S_TEXT/UTF8
Идентификатор кодека/Информация : UTF-8 Plain Text
Продолжительность : 1 ч. 38 м.
Битрейт : 3 бит/сек
ElementCount : 88
Размер потока : 2,87 Кбайт (0%)
Язык : German
Default : Нет
Forced : Нет

Меню
00:00:00.000 : en:00:00:00.000
00:08:35.098 : en:00:08:35.098
00:18:09.338 : en:00:18:09.338
00:28:31.919 : en:00:28:31.919
00:37:28.455 : en:00:37:28.455
00:47:46.822 : en:00:47:46.822
00:59:16.303 : en:00:59:16.303
01:10:23.761 : en:01:10:23.761
01:17:08.374 : en:01:17:08.374
01:31:40.412 : en:01:31:40.412
01:40:22.516 : en:01:40:22.516
01:47:39.244 : en:01:47:39.244

Этот торрент недоступен для скачивания без регистрации, однако доступен по публичной magnet-ссылке (источники с публичных трекеров). Перед использованием ссылки прочтите, пожалуйста Пользовательское соглашение, а также как можно дольше оставайтесь на раздаче! Для того, чтобы скачать сам торрент-файл (который видит больше источников), а также для того, чтобы поблагодарить релизера, вам необходимо зарегистрироваться. Если регистрироваться лень - вы можете также попробовать скачать релиз по нашим партнерским ссылкам ниже. Кроме того, зарегистрированным пользователям не показывается всплывающая реклама при скачивании.

[underverse.me].t97894.torrent
Трекер: Зарегистрирован   [ 24.02.2018 09:34 ]  

Статус: проверено (by Паукан at 24.02.2018 10:20)
Поблагодарили: 1 человек
Тип торрента: публичный - доступные источники с открытых трекеров: 
Размер: 32,3 GB (занимает 7,38 DVDR, для записи нужно 8 болванок DVDR/RW)
 
 
Похожие темы
Форум Тема Автор Торрент Отв. Посл. сооб.
Зарубежное кино [DVDRip, Low-Res HDRip, и т.д.] Легенда о вратах ада: Американский заговор / The Legend of Hell`s Gate: An American Conspiracy (Тэннер Бирд) [2011 г., боевик, приключения, вестерн, история, DVDRip] RG NewCinema
1 | 0

0 | 2592

22

13.07.2012 23:11

Зарубежное кино [DVDRip, Low-Res HDRip, и т.д.] Легенда о Красном Орле / Aguila Roja, la pelicula (Хосе Рамон Айерра) [2011 г., боевик, комедия, приключения, HDRip] MVO 90ytr90
1 | 1

0 | 2174

17

30.11.2012 17:57

T Зарубежное кино [DVDRip, Low-Res HDRip, и т.д.] Легенда о Бене Холле / The Legend of Ben Hall (Мэттью Холмс) [2016 г., боевик, драма, вестерн, биография, история, HDRip] MVO (@MUZOBOZ@) makkol
0 | 0

0 | 1212

6

07.05.2017 11:24

Зарубежное кино [DVDRip, Low-Res HDRip, и т.д.] Легенда о пианисте / The Legend of 1900 / La Leggenda Del Pianista Sull'Oceano (Джузеппе Торнаторе / Giuseppe Tornatore) [1998 г., драма, мелодрама, музыка, BDRip] [Full Version] DVO + Sub (Rus, Eng) 90ytr90
2 | 0

0 | 2918

8

04.01.2014 19:13

T Зарубежное кино [DVDRip, Low-Res HDRip, и т.д.] Легенда о безымянном: пробуждение силы / Legend of the Nameless awakening of power (Лиу Жоиксинг) [2018 г., ужасы, боевик, WEB-DLRip] MVO (Колобок) makkol
0 | 0

0 | 689

14

10.08.2018 11:27

T Зарубежное кино [DVDRip, Low-Res HDRip, и т.д.] Легенда о Хэллоуинском Джеке / The Legend of Halloween Jack (Эндрю Джонс) [2018 г., ужасы, WEB-DLRip] MVO (Колобок) makkol
3 | 1

0 | 509

2

10.10.2018 12:06

T Зарубежное кино [DVDRip, Low-Res HDRip, и т.д.] Легенда о призрачном кинжале / Benjamin Falck and the Ghost Dagger (Мартин Софидаль) [2019 г., приключения, WEB-DLRip] MVO (AlphaProject) makkol
26 | 0

0 | 505

16

06.06.2020 10:44

Зарубежное кино [DVDRip, Low-Res HDRip, и т.д.] Легенда о призрачном кинжале / Benjamin Falck and the Ghost Dagger (Мартин Софидаль / Martin Sofiedal) [2019 г., приключения, WEB-DLRip] Dub (iTunes) 90ytr90
651 | 18

0 | 324

22

30.06.2020 18:49

Наше кино [DVDRip, Low-Res HDRip, и т.д.] Легенда о Коловрате (Джаник Файзиев, Иван Шурховецкий) [2017 г., история, боевик, фэнтези, BDRip] 90ytr90
63 | 0

0 | 1063

44

24.02.2018 07:12

Наше кино [DVDRip, Low-Res HDRip, и т.д.] Легенда о Коловрате (Джаник Файзиев, Иван Шурховецкий) [2017 г., история, боевик, фэнтези, BDRip] 90ytr90
1 | 0

0 | 634

6

24.02.2018 07:13

ManHunter 

24-Фев-2018 19:11

С хуяли он в зарубежных релизах?! На кол этого релизера.

90ytr90 

24-Фев-2018 20:19

ManHunter писал(а):

С хуяли он в зарубежных релизах?! На кол этого релизера.
На кол - больно. Можно самому застрелиться?

Но, не дождусь я такой услуги от крутого ManHunter


Последний раз редактировалось: 90ytr90 (24.02.2018 20:49), всего редактировалось 2 раз(а)

24-Фев-2018 20:20

Топик был перенесен из форума Зарубежное кино [DVD / HDDVD / BD / Remux] в форум Наше кино [DVD / HDDVD / BD / Remux]


90ytr90
 

Яндекс.Метрика powered by Sphinx


В Н И М А Н И Е
Сайт не распространяет и не хранит электронные версии произведений, а лишь бесплатно и без коммерческой выгоды (не требуя взамен платы,
SMS и т.д.) предоставляет доступ к создаваемому пользователями каталогу ссылок на торрент-файлы, которые содержат только списки хеш-сумм.
Убедительная просьба с жалобами обращаться напрямую к пользователю, разместившему торрент файл.

Вверх