Loading...
Error

Легенда о Коловрате (Джаник Файзиев, Иван Шурховецкий) [2017 г., история, боевик, фэнтези, BDRip-AVC] Original (Rus) Ripodelnia

Статистика раздачи
Размер:  2,19 GB   |    Зарегистрирован:  3 года   |    Скачан:  9 раз

Полного источника не было: 1 год 4 месяца

Сидов:  0  |  0 KB/s  ]   Личеров:  0  |  0 KB/s  ]

* - сиды/пиры с внешних источников

   
 
Автор Сообщение

Ripodelnia Пол:Муж

26-Фев-2018 15:32

Легенда о Коловрате


Год выпуска: 2017
Жанр: история, боевик, фэнтези
Страна: Россия
Режиссер: Джаник Файзиев, Иван Шурховецкий
В ролях: Илья Малаков, Полина Чернышова, Алексей Серебряков, Александр Ильин мл., Игорь Савочкин, Тимофей Трибунцев, Александр Цой, Юлия Хлынина, Андрей Бурковский, Виктор Проскурин
Сюжет фильма:
XIII век. Русь раздроблена и вот-вот падет на колени перед ханом Золотой Орды Батыем. Испепеляя города и заливая русские земли кровью, захватчики не встречают серьезного сопротивления, и лишь один воин бросает им вызов. Молодой рязанский витязь Евпатий Коловрат возглавляет отряд смельчаков, чтобы отомстить за свою любовь и за свою родину. Его отвага поразит даже Батыя, а его имя навсегда останется в памяти народа. Воин, ставший легендой. Подвиг, сохранившийся в веках.

  • Мировая премьера: 1 декабря 2017
  • Российская премьера: 30 ноября 2017, «Централ Партнершип»

 
Качество видео: BDRip-AVC

Продолжительность: 01:57:52
Формат: mkv
Видео: x264, 1032x432, 2154 kbps
Аудио: русский, оригинал, AC3 5.1, 448 kbps

Код:

General
Complete name                    : D:\Video\Ripodelnia\Legenda.O.Kolovrate.2017.BDRip.x264.Rus.Ripodelnia.mkv
Format                           : Matroska
File size                        : 2.19 GiB
Duration                         : 1h 57mn
Overall bit rate                 : 2 656 Kbps
Encoded date                     : UTC 2018-02-26 15:16:41
Writing application              : mkvmerge v20.0.0 ('I Am The Sun') 64-bit
Writing library                  : libebml v1.3.5 + libmatroska v1.4.8

Video
ID                               : 1
Format                           : AVC
Format/Info                      : Advanced Video Codec
Format profile                   : High@L4.1
Format settings, CABAC           : Yes
Format settings, ReFrames        : 14 frames
Muxing mode                      : Container profile=Unknown@4.1
Codec ID                         : V_MPEG4/ISO/AVC
Duration                         : 1h 57mn
Bit rate                         : 2 155 Kbps
Nominal bit rate                 : 2 206 Kbps
Width                            : 1 032 pixels
Height                           : 432 pixels
Display aspect ratio             : 2.35
Frame rate                       : 23.976 fps
Resolution                       : 24 bits
Colorimetry                      : 4:2:0
Scan type                        : Progressive
Bits/(Pixel*Frame)               : 0.202
Stream size                      : 1.77 GiB (81%)
Title                            : Ripodelnia
Writing library                  : x264 core 155 r2901 7d0ff22
Encoding settings                : cabac=1 / ref=14 / deblock=1:-2:-2 / analyse=0x3:0x133 / me=umh / subme=11 / psy=1 / psy_rd=1.00:0.10 / mixed_ref=1 / me_range=48 / chroma_me=1 / trellis=2 / 8x8dct=1 / cqm=0 / deadzone=21,11 / fast_pskip=0 / chroma_qp_offset=-3 / threads=4 / lookahead_threads=1 / sliced_threads=0 / nr=0 / decimate=0 / interlaced=0 / bluray_compat=0 / constrained_intra=0 / bframes=16 / b_pyramid=2 / b_adapt=2 / b_bias=0 / direct=3 / weightb=1 / open_gop=0 / weightp=2 / keyint=240 / keyint_min=23 / scenecut=40 / intra_refresh=0 / rc_lookahead=60 / rc=2pass / mbtree=0 / bitrate=2206 / ratetol=1.0 / qcomp=0.70 / qpmin=0 / qpmax=69 / qpstep=4 / cplxblur=20.0 / qblur=0.5 / vbv_maxrate=50000 / vbv_bufsize=62500 / nal_hrd=none / filler=0 / ip_ratio=1.40 / pb_ratio=1.30 / aq=2:0.80

Audio
ID                               : 2
Format                           : AC-3
Format/Info                      : Audio Coding 3
Codec ID                         : A_AC3
Duration                         : 1h 57mn
Bit rate mode                    : Constant
Bit rate                         : 448 Kbps
Channel(s)                       : 6 channels
Channel positions                : Front: L C R, Surround: L R, LFE
Sampling rate                    : 48.0 KHz
Stream size                      : 378 MiB (17%)
Title                            : Russian (Original)
Language                         : Russian

Menu
00:00:00.000                     : en:00:00:00.000
00:08:35.098                     : en:00:08:35.098
00:18:09.338                     : en:00:18:09.338
00:28:31.919                     : en:00:28:31.919
00:37:28.455                     : en:00:37:28.455
00:47:46.822                     : en:00:47:46.822
00:59:16.303                     : en:00:59:16.303
01:10:23.761                     : en:01:10:23.761
01:17:08.374                     : en:01:17:08.374
01:31:40.412                     : en:01:31:40.412
01:40:22.516                     : en:01:40:22.516
01:47:39.244                     : en:01:47:39.244

Релиз группы: Ripodelnia

picpicpic
Для увеличения картинки щелкните мышкой по превью

Этот торрент недоступен для скачивания без регистрации, однако доступен по публичной magnet-ссылке (источники с публичных трекеров). Перед использованием ссылки прочтите, пожалуйста Пользовательское соглашение, а также как можно дольше оставайтесь на раздаче! Для того, чтобы скачать сам торрент-файл (который видит больше источников), а также для того, чтобы поблагодарить релизера, вам необходимо зарегистрироваться. Если регистрироваться лень - вы можете также попробовать скачать релиз по нашим партнерским ссылкам ниже. Кроме того, зарегистрированным пользователям не показывается всплывающая реклама при скачивании.

[underverse.me].t98102.torrent
Трекер: Зарегистрирован   [ 26.02.2018 15:32 ]  

Статус: проверено (by Паукан at 27.02.2018 15:41)
Поблагодарили: 1 человек
Тип торрента: публичный - доступные источники с открытых трекеров: 
Размер: 2,19 GB (занимает 1/2 DVDR, для записи нужно 1 болванка DVDR/RW)
 
 
Похожие темы
Форум Тема Автор Торрент Отв. Посл. сооб.
Зарубежное кино [DVDRip, Low-Res HDRip, и т.д.] Легенда о вратах ада: Американский заговор / The Legend of Hell`s Gate: An American Conspiracy (Тэннер Бирд) [2011 г., боевик, приключения, вестерн, история, DVDRip] RG NewCinema
1 | 0

0 | 2783

22

13.07.2012 23:11

Зарубежное кино [DVDRip, Low-Res HDRip, и т.д.] Легенда о Красном Орле / Aguila Roja, la pelicula (Хосе Рамон Айерра) [2011 г., боевик, комедия, приключения, HDRip] MVO 90ytr90
7 | 0

0 | 2323

18

30.11.2012 17:57

T Зарубежное кино [DVDRip, Low-Res HDRip, и т.д.] Легенда о Бене Холле / The Legend of Ben Hall (Мэттью Холмс) [2016 г., боевик, драма, вестерн, биография, история, HDRip] MVO (@MUZOBOZ@) makkol
1 | 0

0 | 1356

6

07.05.2017 11:24

Зарубежное кино [DVDRip, Low-Res HDRip, и т.д.] Легенда о пианисте / The Legend of 1900 / La Leggenda Del Pianista Sull'Oceano (Джузеппе Торнаторе / Giuseppe Tornatore) [1998 г., драма, мелодрама, музыка, BDRip] [Full Version] DVO + Sub (Rus, Eng) 90ytr90
6 | 0

0 | 3130

8

04.01.2014 19:13

T Зарубежное кино [DVDRip, Low-Res HDRip, и т.д.] Легенда о безымянном: пробуждение силы / Legend of the Nameless awakening of power (Лиу Жоиксинг) [2018 г., ужасы, боевик, WEB-DLRip] MVO (Колобок) makkol
0 | 0

0 | 831

14

10.08.2018 11:27

T Зарубежное кино [DVDRip, Low-Res HDRip, и т.д.] Легенда о Хэллоуинском Джеке / The Legend of Halloween Jack (Эндрю Джонс) [2018 г., ужасы, WEB-DLRip] MVO (Колобок) makkol
3 | 1

0 | 675

3

10.10.2018 12:06

T Зарубежное кино [DVDRip, Low-Res HDRip, и т.д.] Легенда о призрачном кинжале / Benjamin Falck and the Ghost Dagger (Мартин Софидаль) [2019 г., приключения, WEB-DLRip] MVO (AlphaProject) makkol
5 | 0

0 | 700

16

06.06.2020 10:44

Зарубежное кино [DVDRip, Low-Res HDRip, и т.д.] Легенда о призрачном кинжале / Benjamin Falck and the Ghost Dagger (Мартин Софидаль / Martin Sofiedal) [2019 г., приключения, WEB-DLRip] Dub (iTunes) 90ytr90
110 | 4

0 | 560

22

30.06.2020 18:49

T Зарубежное кино [DVDRip, Low-Res HDRip, и т.д.] Легенда о Пяти / The Legend of the Five (Джоэнн Сэмюэл) [2020 г., фэнтези, драма, детектив, приключения, WEB-DLRip] DVO (@MUZOBOZ@) makkol
22 | 0

0 | 386

7

26.09.2020 10:44

Наше кино [DVDRip, Low-Res HDRip, и т.д.] Легенда о Коловрате (Джаник Файзиев, Иван Шурховецкий) [2017 г., история, боевик, фэнтези, BDRip] 90ytr90
87 | 1

0 | 1252

45

24.02.2018 07:12


Яндекс.Метрика powered by Sphinx


В Н И М А Н И Е
Сайт не распространяет и не хранит электронные версии произведений, а лишь бесплатно и без коммерческой выгоды (не требуя взамен платы,
SMS и т.д.) предоставляет доступ к создаваемому пользователями каталогу ссылок на торрент-файлы, которые содержат только списки хеш-сумм.
Убедительная просьба с жалобами обращаться напрямую к пользователю, разместившему торрент файл.

Вверх