Loading...
Error

Нелюбовь (Андрей Звягинцев) [2017 г., драма, BDRemux 1080i] [FRE Transfer]

Статистика раздачи
Размер:  28,03 GB   |    Зарегистрирован:  2 года 5 месяцев   |    Скачан:  7 раз

Полного источника не было: 1 месяц 11 дней

Сидов:  0  |  0 KB/s  ]   Личеров:  0  |  0 KB/s  ]

* - сиды/пиры с внешних источников

   
 
Автор Сообщение

90ytr90 

27-Фев-2018 09:55

Нелюбовь

Страна: Россия
Год выпуска: 2017
Жанр: драма
Продолжительность: 02:01:46
Перевод: не требуется
Режиссёр: Андрей Звягинцев

В ролях: Марьяна Спивак, Алексей Розин, Матвей Новиков, Марина Васильева, Андрис Кейшс, Алексей Фатеев, Сергей Борисов, Наталья Потапова, Анна Гуляренко, Артем Жигулин


Сюжет фильма:
Фильм рассказывает о современной московской семье, переживающей тяжелый, мучительный развод. Главные герои (Женя и Борис) — ещё супруги, но каждый из них уже фактически начал новую главу жизни, и потому им не терпится покончить с формальностями и развестись. В череде конфликтов и бесконечных взаимных претензий Женя и Борис пренебрегают своим единственным ребенком, 12-летним Алёшей, который чувствует абсолютную ненужность обоим родителям. Неожиданно, после их очередной ссоры, Алёша исчезает.

  • Дата мировой премьеры: 18 мая 2017
  • Дата российской премьеры: 1 июня 2017, «WDSSPR»
             
Качество видео: BDRemux 1080i [FRE Transfer]
Формат: MKV
Видео: AVC, 1920x1080 (16:9), 29.8 Mbps, 25 fps, 0.574 bit/pixel
Аудио: DTS-HD Master Audio, 3172 kbps/1509 kbps, 6 ch, 48 kHz, Original
Навигация по главам: есть (13)

Rip by vsobbol
Format : Matroska
Format version : Version 2
File size : 28.0 GiB
Duration : 2 h 1 min
Overall bit rate mode : Variable
Overall bit rate : 33.0 Mb/s
Encoded date : UTC 2018-02-26 22:50:54
Writing application : mkvmerge v19.0.0 ('Brave Captain') 64-bit
Writing library : libebml v1.3.5 + libmatroska v1.4.8

Video
ID : 1
Format : AVC
Format/Info : Advanced Video Codec
Format profile : High@L4.1
Format settings, CABAC : Yes
Format settings, RefFrames : 4 frames
Codec ID : V_MPEG4/ISO/AVC
Duration : 2 h 1 min
Bit rate mode : Variable
Bit rate : 29.8 Mb/s
Maximum bit rate : 35.0 Mb/s
Width : 1 920 pixels
Height : 1 080 pixels
Display aspect ratio : 16:9
Frame rate mode : Constant
Frame rate : 25.000 FPS
Color space : YUV
Chroma subsampling : 4:2:0
Bit depth : 8 bits
Scan type : MBAFF
Scan type, store method : Interleaved fields
Scan order : Top Field First
Bits/(Pixel*Frame) : 0.574
Stream size : 25.3 GiB (90%)
Title : Нелюбовь (2017)
Default : Yes
Forced : No

Audio
ID : 2
Format : DTS
Format/Info : Digital Theater Systems
Format profile : MA / Core
Mode : 16
Format settings, Endianness : Big
Codec ID : A_DTS
Duration : 2 h 1 min
Bit rate mode : Variable / Constant
Bit rate : 3 172 kb/s / 1 509 kb/s
Channel(s) : 6 channels
Channel positions : Front: L C R, Side: L R, LFE
Sampling rate : 48.0 kHz
Frame rate : 93.750 FPS (512 SPF)
Bit depth : 24 bits
Compression mode : Lossless / Lossy
Stream size : 2.70 GiB (10%)
Language : Russian
Default : Yes
Forced : No

Menu
00:00:00.000 : en:Chapter 01
00:08:58.000 : en:Chapter 02
00:19:00.000 : en:Chapter 03
00:27:38.240 : en:Chapter 04
00:34:28.920 : en:Chapter 05
00:47:27.120 : en:Chapter 06
01:00:50.840 : en:Chapter 07
01:09:28.200 : en:Chapter 08
01:16:29.800 : en:Chapter 09
01:27:02.080 : en:Chapter 10
01:36:34.720 : en:Chapter 11
01:45:30.640 : en:Chapter 12
02:01:45.920 : en:Chapter 13

Оскар, 2018 год
Номинации (1):
Лучший фильм на иностранном языке

Золотой глобус, 2018 год
Номинации (1):
Лучший фильм на иностранном языке
Британская академия, 2018 год
Номинации (1):
Лучший фильм на иностранном языке

Золотой орел, 2018 год
Победитель (1):
Лучший режиссер ( Андрей Звягинцев )
Номинации (4):
Лучший фильм
Лучший сценарий
Лучшая работа оператора
Лучшая музыка

Каннский кинофестиваль, 2017 год
Победитель (1):
Приз жюри
Номинации (1):
Золотая пальмовая ветвь

Европейская киноакадемия, 2017 год
Победитель (2):
Лучший композитор
Премия Карло ди Пальма лучшему оператору
Номинации (3):
Лучший фильм
Лучший режиссер (Андрей Звягинцев)
Лучшая работа сценариста (Андрей Звягинцев, Олег Негин)


pic pic pic
Для увеличения картинки щелкните мышкой по превью



pic pic pic pic pic pic

Этот торрент недоступен для скачивания без регистрации, однако доступен по публичной magnet-ссылке (источники с публичных трекеров). Перед использованием ссылки прочтите, пожалуйста Пользовательское соглашение, а также как можно дольше оставайтесь на раздаче! Для того, чтобы скачать сам торрент-файл (который видит больше источников), а также для того, чтобы поблагодарить релизера, вам необходимо зарегистрироваться. Если регистрироваться лень - вы можете также попробовать скачать релиз по нашим партнерским ссылкам ниже. Кроме того, зарегистрированным пользователям не показывается всплывающая реклама при скачивании.

[underverse.me].t98153.torrent
Трекер: Зарегистрирован   [ 27.02.2018 09:55 ]  

Статус: проверено (by 90ytr90 at 27.02.2018 17:15)
Поблагодарили: пока никто не поблагодарил...
Тип торрента: публичный - доступные источники с открытых трекеров: 
Размер: 28,03 GB (занимает 6,4 DVDR, для записи нужно 7 болванок DVDR/RW)
 
 
Похожие темы
Форум Тема Автор Торрент Отв. Посл. сооб.
Наше кино [DVDRip, Low-Res HDRip, и т.д.] Нелюбовь (Андрей Звягинцев) [2017 г., драма, BDRip] makkol
15 | 0

0 | 831

26

01.02.2018 10:26

Наше кино [DVDRip, Low-Res HDRip, и т.д.] Нелюбовь (Андрей Звягинцев) [2017 г., драма, BDRip] makkol
30 | 4

0 | 805

18

01.02.2018 10:36

Наше кино [DVDRip, Low-Res HDRip, и т.д.] Нелюбовь (Андрей Звягинцев) [2017 г., драма, BDRip-AVC] makkol
21 | 0

0 | 677

17

01.02.2018 10:43

Наше кино [DVD / HDDVD / BD / Remux] Нелюбовь (Андрей Звягинцев) [2017 г., драма, BD FRE 1080i] Original (Rus) + Fre + Sub (Fre) 90ytr90
1 | 1

0 | 858

2

27.02.2018 10:18

Наше кино [HDDVDRip / BDRip / WEB-DL / HDTV 1080/720р] Нелюбовь (Андрей Звягинцев) [2017 г., драма, BDRip 1080p] Rus + Fre makkol
17 | 0

0 | 870

21

01.02.2018 10:54

Наше кино [HDDVDRip / BDRip / WEB-DL / HDTV 1080/720р] Нелюбовь (Андрей Звягинцев) [2017 г., драма, BDRip 720p] 90ytr90
7 | 0

0 | 596

8

27.02.2018 10:00

Наше кино [HDDVDRip / BDRip / WEB-DL / HDTV 1080/720р] Нелюбовь (Андрей Звягинцев) [2017 г., драма, BDRip 720p] [FRE Transfer] 90ytr90
2 | 0

0 | 687

6

27.02.2018 10:02


Яндекс.Метрика powered by Sphinx


В Н И М А Н И Е
Сайт не распространяет и не хранит электронные версии произведений, а лишь бесплатно и без коммерческой выгоды (не требуя взамен платы,
SMS и т.д.) предоставляет доступ к создаваемому пользователями каталогу ссылок на торрент-файлы, которые содержат только списки хеш-сумм.
Убедительная просьба с жалобами обращаться напрямую к пользователю, разместившему торрент файл.

Вверх