Loading...
Error

Английский вместе с Хрюшей и Степашкой (Ситкова Н.) [2003-2007, обучающие программы для детей, DVDRip]

Статистика раздачи
Размер:  4,38 GB   |    Зарегистрирован:  2 года 3 месяца   |    Скачан:  11 раз

Полного источника не было: 1 день 18 часов

Сидов:  0  |  0 KB/s  ]   Личеров:  1  |  0 KB/s  ]

* - сиды/пиры с внешних источников

   
 
Автор Сообщение

Боцман Пол:Муж

18-Мар-2018 05:47



________________________________________________________________


Английский вместе с Хрюшей и Степашкой
________________________________________________________________




Год выпуска: 2003-2007
Жанр: детский обучающий фильм
Страна: Россия,Телекомпания КЛАСС
Продолжительность: 52 серии по ~ 00:10:00
Перевод: не требуется

Режиссёр: Наталья Ситкова, Нина Подколзина, Людмила Зайцева, Александр Митрошенко, Елена Лезина

В ролях: Юлия Иванова, Олег Чабанюк, Татьяна Савина, Татьяна Федоровская

Описание: Программа "Английский вместе с Хрюшей и..." - это обучающая программа для детей дошкольного возраста. Вместе с известными героями - Хрюшей, Степашкой, Каркушей, Филей и их учительницей - тетей Юлей дети постигают азы иностранного языка. В программе много песен и яркой компьютерной графики, что делает ее забавной и увлекательной для маленького зрителя. От урока к уроку изучаемый материал усложняется: от простых слов и понятий до умения правильно составлять предложения. В данном цикле уроков дети познакомятся с простейшими общеупотребительными глаголами, а также английскими глагольными формами. Расширится словарный запас маленьких зрителей. Овощи и фрукты, звери и продукты, мебель и всевозможные игры - вот то, что малыши узнают и научатся использовать в своей речи.
Сначала дети научатся простейшим формам общения между собой, познакомятся с глаголами, эпитетами и определениями, узнают счет от одного до десяти, а также построение множественного числа в английском языке. Малыши познакомятся с понятием величины, научатся сравнивать предметы, грамотно ставить и отвечать на вопросы, считать от десяти до двадцати и узнают повелительное наклонение глагола. Вместе с этим будет продолжаться расширение словарного запаса. Дети познакомятся с понятиями профессий, научатся рассказывать о своей семье, описывать себя, своих родственников и друзей. Также их ждет забавное путешествие в волшебное королевство.

Доп. информация: 52 увлекательных урокa с любимыми героями!

Качество: DVDRip
Формат: AVI
Видео кодек: DivX
Видео 1: DivX 4, 720x480 (1.500), 29.970 fps, 1 203 Kbps (0.116 bit/pixel)( серии 1-10),
Видео 2: DivX 4, 576x480 (1.200), 25.000 fps, 1 202 Kbps (0.174 bit/pixel)(серии 11-40),
Видео 3: DivX 4, 720x576 (5/4), 25.000 fps, 1 202 Kbps (0.116 bit/pixel)(серии 41-52).
Аудио: MP3, 44.1 KHz, 2 ch, 64.0 Kbps, CBR
Общее
Полное имя : K:\Видеоуроки\Английский с Хрюшей и Степашей\English_Xryusha_Stepasha_01.avi
Формат : AVI
Формат/Информация : Audio Video Interleave
Размер файла : 80,2 Мбайт
Продолжительность : 8 м. 45 с.
Общий поток : 1280 Кбит/сек

Видео
Идентификатор : 0
Формат : MPEG-4 Visual
Профиль формата : Simple@L1
Параметр BVOP формата : Нет
Параметр QPel формата : Нет
Параметр GMC формата : Без точки перехода
Параметр матрицы формата : Default (H.263)
Идентификатор кодека : DIVX
Идентификатор кодека/Информация : Project Mayo
Идентификатор кодека/Подсказка : DivX 4
Продолжительность : 8 м. 45 с.
Битрейт : 1203 Кбит/сек
Ширина : 720 пикселей
Высота : 480 пикселей
Соотношение сторон : 3:2
Частота кадров : 29,970 кадров/сек
Стандарт вещания : NTSC
Цветовое пространство : YUV
Субдискретизация насыщенности : 4:2:0
Битовая глубина : 8 бит
Тип развёртки : Прогрессивная
Метод сжатия : С потерями
Бит/(Пиксели*Кадры) : 0.116
Размер потока : 75,3 Мбайт (94%)
Библиотека кодирования : avc2.0.11.1110

Аудио
Идентификатор : 1
Формат : MPEG Audio
Версия формата : Version 1
Профиль формата : Layer 3
Режим : Joint stereo
Расширение режима : MS Stereo
Идентификатор кодека : 55
Идентификатор кодека/Подсказка : MP3
Продолжительность : 8 м. 45 с.
Вид битрейта : Постоянный
Битрейт : 64,0 Кбит/сек
Каналы : 2 канала
Частота : 44,1 КГц
Метод сжатия : С потерями
Размер потока : 4,01 Мбайт (5%)
Выравнивание : Соединение по промежуткам
Продолжительность промежутка : 26 мс. (0,78 видеокадр)

Общее
Полное имя : K:\Видеоуроки\Английский с Хрюшей и Степашей\English_Xryusha_Stepasha_11.avi
Формат : AVI
Формат/Информация : Audio Video Interleave
Размер файла : 82,4 Мбайт
Продолжительность : 9 м. 0 с.
Общий поток : 1279 Кбит/сек

Видео
Идентификатор : 0
Формат : MPEG-4 Visual
Профиль формата : Simple@L1
Параметр BVOP формата : Нет
Параметр QPel формата : Нет
Параметр GMC формата : Без точки перехода
Параметр матрицы формата : Default (H.263)
Идентификатор кодека : DIVX
Идентификатор кодека/Информация : Project Mayo
Идентификатор кодека/Подсказка : DivX 4
Продолжительность : 9 м. 0 с.
Битрейт : 1202 Кбит/сек
Ширина : 576 пикселей
Высота : 480 пикселей
Соотношение сторон : 1,200
Частота кадров : 25,000 кадров/сек
Цветовое пространство : YUV
Субдискретизация насыщенности : 4:2:0
Битовая глубина : 8 бит
Тип развёртки : Прогрессивная
Метод сжатия : С потерями
Бит/(Пиксели*Кадры) : 0.174
Размер потока : 77,5 Мбайт (94%)
Библиотека кодирования : avc2.0.11.1110

Аудио
Идентификатор : 1
Формат : MPEG Audio
Версия формата : Version 1
Профиль формата : Layer 3
Режим : Joint stereo
Расширение режима : MS Stereo
Идентификатор кодека : 55
Идентификатор кодека/Подсказка : MP3
Продолжительность : 8 м. 59 с.
Вид битрейта : Постоянный
Битрейт : 64,0 Кбит/сек
Каналы : 2 канала
Частота : 44,1 КГц
Метод сжатия : С потерями
Размер потока : 4,12 Мбайт (5%)
Выравнивание : Соединение по промежуткам
Продолжительность промежутка : 26 мс. (0,65 видеокадр)

Общее
Полное имя : K:\Видеоуроки\Английский с Хрюшей и Степашей\English_Xryusha_Stepasha_41.avi
Формат : AVI
Формат/Информация : Audio Video Interleave
Размер файла : 91,5 Мбайт
Продолжительность : 10 м.
Общий поток : 1279 Кбит/сек

Видео
Идентификатор : 0
Формат : MPEG-4 Visual
Профиль формата : Simple@L1
Параметр BVOP формата : Нет
Параметр QPel формата : Нет
Параметр GMC формата : Без точки перехода
Параметр матрицы формата : Default (H.263)
Идентификатор кодека : DIVX
Идентификатор кодека/Информация : Project Mayo
Идентификатор кодека/Подсказка : DivX 4
Продолжительность : 10 м.
Битрейт : 1202 Кбит/сек
Ширина : 720 пикселей
Высота : 576 пикселей
Соотношение сторон : 5:4
Частота кадров : 25,000 кадров/сек
Стандарт вещания : PAL
Цветовое пространство : YUV
Субдискретизация насыщенности : 4:2:0
Битовая глубина : 8 бит
Тип развёртки : Прогрессивная
Метод сжатия : С потерями
Бит/(Пиксели*Кадры) : 0.116
Размер потока : 86,1 Мбайт (94%)
Библиотека кодирования : avc2.0.11.1110

Аудио
Идентификатор : 1
Формат : MPEG Audio
Версия формата : Version 1
Профиль формата : Layer 3
Режим : Joint stereo
Расширение режима : MS Stereo
Идентификатор кодека : 55
Идентификатор кодека/Подсказка : MP3
Продолжительность : 10 м.
Вид битрейта : Постоянный
Битрейт : 64,0 Кбит/сек
Каналы : 2 канала
Частота : 44,1 КГц
Метод сжатия : С потерями
Размер потока : 4,58 Мбайт (5%)
Выравнивание : Соединение по промежуткам
Продолжительность промежутка : 26 мс. (0,65 видеокадр)

Этот торрент недоступен для скачивания без регистрации, однако доступен по публичной magnet-ссылке (источники с публичных трекеров). Перед использованием ссылки прочтите, пожалуйста Пользовательское соглашение, а также как можно дольше оставайтесь на раздаче! Для того, чтобы скачать сам торрент-файл (который видит больше источников), а также для того, чтобы поблагодарить релизера, вам необходимо зарегистрироваться. Если регистрироваться лень - вы можете также попробовать скачать релиз по нашим партнерским ссылкам ниже. Кроме того, зарегистрированным пользователям не показывается всплывающая реклама при скачивании.

[underverse.me].t100272.torrent
Трекер: Зарегистрирован   [ 18.03.2018 06:20 ]  

Статус: проверено (by 90ytr90 at 25.03.2018 08:23)
Поблагодарили: пока никто не поблагодарил...
Тип торрента: публичный - доступные источники с открытых трекеров: 
Размер: 4,38 GB (занимает 1 DVDR, для записи нужно 1 болванка DVDR/RW)
 
 
Похожие темы
Форум Тема Автор Торрент Отв. Посл. сооб.
Зарубежное кино [DVDRip, Low-Res HDRip, и т.д.] Английский пациент / The English Patient (Энтони Мингелла / Anthony Minghella) [1996 г., драма, мелодрама, военный, HDRip] MVO 90ytr90
15 | 2

0 | 1636

10

24.09.2013 15:29

Детская литература Английский язык для детей. Уроки Грин Крока (2005) [MP3] StarPer71
0 | 0

0 | 994

19

16.06.2017 19:11

Архив (художественные фильмы) Английский пациент / The English Patient (Энтони Мингелла / Anthony Minghella) [1996 г., драма, мелодрама, военный, BDRip] MVO 90ytr90
1 | 1

1 | 872

4

31.01.2018 14:46

Архив книг Английский язык для инженеров [2004 г., Гуманитарные науки, Другой/Разные] RUS gelezajka
0 | 1

4 | 2196

18

27.01.2018 23:55


Яндекс.Метрика powered by Sphinx


В Н И М А Н И Е
Сайт не распространяет и не хранит электронные версии произведений, а лишь бесплатно и без коммерческой выгоды (не требуя взамен платы,
SMS и т.д.) предоставляет доступ к создаваемому пользователями каталогу ссылок на торрент-файлы, которые содержат только списки хеш-сумм.
Убедительная просьба с жалобами обращаться напрямую к пользователю, разместившему торрент файл.

Вверх